Welcome Guest ( Log In | Register )

> И неформату есть предел.

Рэп/хип-хоп/шансон/поп удаляются. Для них есть свои порталы.

 
Reply to this topicStart new topic
> Joel Fausto & Illusion Orchestra - Illusion Orchestra At The Gloomy Club (2013), Dark Jazz
post Jan 7 2020, 16:09:43
Post #1

Два Литра
**
Group: Завсегдатай
Posts: 147
Releases: 4
From: Санкт-Петербург
On Forums: 13 years 8 months
Thanks: 328 time(s)
Russian Federation


(IMG:http://metalarea.org/images/audiocovers/2020_Jan/acov_tid332341_thumb.jpg)

*Artist: Joel Fausto & Illusion Orchestra
*Album: Illusion Orchestra At The Gloomy Club
*Year: 2013
*Genre: Dark Jazz
*Country: Portugal (IMG:http://metalarea.org/forum/style_images/flags/Portugal.png)
*Format: mp3@CBR320kbps
*Size: 135MB

Tracklist:
01. Smoke Night 09:35
02. Radio Silence 06:31
03. Someone Sang And Slowly Danced 06:15
04. Hearing Weird Noises In The Back Room 05:25
05. Dark Smooth Chord 07:00
06. Wicked White Dress 05:24
07. Gin & Tonic 05:39
08. Drunk Lady Licking Her Hand 03:53
09. Gloomy Club 11:10
******************************
Total playing time: 1:00:51

(IMG:http://metalarea.org/images/youtube.png)


Technical info
(IMG:http://metalarea.org/images/spectrogram/2020_Jan/9f3a83f2716988aa36c479718ec814b2.png)
Input File: 01 - Smoke Night.mp3
Channels : 2
Sample Rate : 44100
Precision : 16-bit
Duration : 00:09:35.07 = 25360499 samples = 43130.1 CDDA sectors
File Size : 23.1M
Bit Rate : 321k
Sample Encoding: MPEG audio (layer I, II or III)
Comments :
Title=Smoke Night
Artist=Joel Fausto & Illusion Orchestra
Album=Illusion Orchestra At The Gloomy Club
Tracknumber=01
Year=2013
Genre=Dark Jazz



Register


Go to the top of the page
  Insert nick Quick quote
+Quote Post

Reply to this topicStart new topic
1 User(s) are reading this topic (1 Guests and 0 Anonymous Users)
0 Members:

 



- Lo-Fi Version Support form
Copyrights and abuse reports form
Time is now: 25th January 2020 - 01:22:12