Welcome Guest ( Log In | Register )

> И неформату есть предел.

Рэп/хип-хоп/шансон/поп удаляются. Для них есть свои порталы.

> Blackmole - Ghost (2017), Dark Jazz
post Jan 7 2020, 18:57:32
Post #1

Два Литра
**
Group: Завсегдатай
Posts: 187
Releases: 7
From: Санкт-Петербург
On Forums: 13 years 9 months
Thanks: 536 time(s)
Russian Federation


(IMG:http://metalarea.org/images/audiocovers/2020_Jan/acov_tid332351_thumb.jpg)

*Artist: Blackmole
*Album: Ghost
*Year: 2017
*Genre: Dark Jazz
*Country: Russian Federation (IMG:http://metalarea.org/forum/style_images/flags/Russian%20Federation.png)
*Format: mp3@CBR320kbps
*Size: 118MB

Tracklist:
01. It's All In The Past 03:01
02. Failure 04:10
03. Desolation 06:02
04. Drowning 02:52
05. Disengaged 04:36
06. Refuse 03:50
07. Interlude I 01:51
08. Anxiety 06:12
09. Withering 03:34
10. Weakling 03:39
11. Interlude II 02:13
12. Nowhere 04:26
13. Ghost 03:28
******************************
Total playing time: 49:55

(IMG:http://metalarea.org/images/youtube.png)


Extended info
recorded in 2012 - 2017


Technical info
(IMG:http://metalarea.org/images/spectrogram/2020_Jan/8d9dd0f9885ad77a5630422fc271f558.png)
Input File: 02 - Failure.mp3
Channels : 2
Sample Rate : 44100
Precision : 16-bit
Duration : 00:04:10.48 = 11046124 samples = 18785.9 CDDA sectors
File Size : 10.1M
Bit Rate : 324k
Sample Encoding: MPEG audio (layer I, II or III)
Comments :
Title=Failure
Artist=Blackmole
Album=Ghost
Tracknumber=02
Year=2017
Genre=Dark Jazz



Register


Go to the top of the page
  Insert nick Quick quote
+Quote Post
 
Start new topic
Replies (1 - 1)
post Jan 18 2020, 21:18:39
Post #2

Три Литра
***
Group: Завсегдатай
Posts: 224
Releases: 0
From: Russia
On Forums: 13 years 3 months
Thanks: 46 time(s)
Russian Federation


Их обманули, когда сказали, что они dark jazz. Они - печальная херня, а не dark jazz.
Go to the top of the page
  Insert nick Quick quote
+Quote Post

Reply to this topicStart new topic
1 User(s) are reading this topic (1 Guests and 0 Anonymous Users)
0 Members:

 



- Lo-Fi Version Support form
Copyrights and abuse reports form
Time is now: 25th February 2020 - 01:24:16