Welcome Guest ( Log In | Register )

> И неформату есть предел.

Рэп/хип-хоп/шансон/поп удаляются. Для них есть свои порталы.

 
Reply to this topicStart new topic
> Down Elevator - The Sequence: 2012​-​2019 [compilation] (2019), Industrial Metal/Industrial Rock
post Jan 7 2020, 19:17:09
Post #1

Три Литра
***
Group: Завсегдатай
Posts: 229
Releases: 8
From: Санкт-Петербург
On Forums: 14 years 4 months
Thanks: 807 time(s)
Russian Federation


(IMG:http://metalarea.org/images/audiocovers/2020_Jan/acov_tid332353_thumb.jpg)

*Artist: Down Elevator
*Album: The Sequence: 2012​-​2019 [compilation]
*Year: 2019
*Genre: Industrial Metal/Industrial Rock
*Country: Russian Federation (IMG:http://metalarea.org/forum/style_images/flags/Russian%20Federation.png)
*Format: mp3@CBR320kbps
*Size: 94MB

Tracklist:
01. Noway 04:39
02. Crush That Bones 04:12
03. Someday 03:56
05. New World 04:24
05. Break On Through 04:57
06. Signal 04:39
07. Radience 05:24
08. Rampage II 04:21
09. Farewell 06:14
******************************
Total playing time: 42:44



Extended info
Moscow industrial project (Sobaki Tabaka member). Inspiration by Godflesh, Killing Joke, Sonic Violence, Test Dept, GOD, O.L.D., Cable Regime, The Young Gods, Ministry, Revolting Cocks, Loop, Alboth!, Scorn, Slab etc.

Явно слышно влияние Crunch, Godflesh и Killing Joke.


Technical info
(IMG:http://metalarea.org/images/spectrogram/2020_Jan/c5334d71c79b6467cbbb4798f34356c7.png)
Input File: 01 - Noway.mp3
Channels : 2
Sample Rate : 44100
Precision : 16-bit
Duration : 00:04:38.80 = 12294948 samples = 20909.8 CDDA sectors
File Size : 11.2M
Bit Rate : 320k
Sample Encoding: MPEG audio (layer I, II or III)
Comments :
Title=Noway
Artist=Down Elevator
Album=The Sequence: 2012-2019 (compilation)
Tracknumber=01
Year=2019
Genre=Industrial Metal/Industrial Rock



Register


Go to the top of the page
  Insert nick Quick quote
+Quote Post

Reply to this topicStart new topic
1 User(s) are reading this topic (1 Guests and 0 Anonymous Users)
0 Members:

 



- Lo-Fi Version Support form
Copyrights and abuse reports form
Time is now: 23rd September 2020 - 10:07:21