Welcome Guest ( Log In | Register )

> И неформату есть предел.

Рэп/хип-хоп/шансон/поп удаляются. Для них есть свои порталы.

 
Reply to this topicStart new topic
> Various Artists - Sonic Seducer: Cold Hands Seduction 213 [compilation] (2019), Various Gothic (D2155)
post Jan 7 2020, 19:49:01
Post #1

Мегаманьяк
***********
Group: Металариец
Posts: 1,714
Releases: 462
On Forums: 12 years 1 month
Thanks: 6594 time(s)
Ireland


(IMG:https://metalarea.org/images/audiocovers/2020_Jan/acov_tid332355_thumb.jpg)

*Artist: Various Artists
*Album: Sonic Seducer: Cold Hands Seduction 213 [compilation]
*Year: 2019
*Genre: Various Gothic
*Country: Many (IMG:https://metalarea.org/forum/style_images/flags/Many.png)
*Format: mp3@CBR320kbps
*Size: 164MB

Tracklist:
1. Die Krupps - Fuck You
2. Faun - Hagazussa (Remix)
3. Uhlenflug - Dulcis Amor
4. Memoria feat. Henric De La Cour - Lights Out
5. Hoffen - Calisto
6. Ground Nero - Jabez
7. Projekt Ich feat. Asia Wolf (End Of New) - Lullaby For Alisa (Alex Stroeer Remix)
8. Mirrorplain - Judgement Day
9. Elm - Death Of The North
10. POS.:2 - Kein Weg
11. Totem - A Night In Reverse
12. Alpgeist - Im Woid Dahoam
13. Nachtfalter - Anderes Leben
14. First Aid 4 Souls - Increased Sensory Perception
15. Perfection Doll - Garden Of Delight
16. Dr. Drexler Project - Beton Muss Her
******************************
Total playing time: 1:13:32

Technical info
(IMG:https://metalarea.org/images/spectrogram/2020_Jan/298a7c7267ec215ca7676c033abca9e4.png)
Input File: 05 Calisto.mp3
Channels : 2
Sample Rate : 44100
Precision : 16-bit
Duration : 00:04:38.98 = 12303018 samples = 20923.5 CDDA sectors
File Size : 11.3M
Bit Rate : 324k
Sample Encoding: MPEG audio (layer I, II or III)
Comments :
Title=Calisto
Artist=Hoffen
Album=Cold Hands Seduction Vol. 213
Tracknumber=05/16
Year=2019
Genre=Electronic



Register


Go to the top of the page
  Insert nick Quick quote
+Quote Post

Reply to this topicStart new topic
1 User(s) are reading this topic (1 Guests and 0 Anonymous Users)
0 Members:

 



- Lo-Fi Version Support form
Copyrights and abuse reports form
Time is now: 7th June 2020 - 09:18:44