Welcome Guest ( Log In | Register )

> И неформату есть предел.

Рэп/хип-хоп/шансон/поп удаляются. Для них есть свои порталы.

 
Reply to this topicStart new topic
> Various Artists - Sonic Seducer: Cold Hands Seduction 214 [compilation] (2019), Various Gothic (D2155)
post Jan 7 2020, 19:53:20
Post #1

Мегаманьяк
***********
Group: Металариец
Posts: 1,712
Releases: 462
On Forums: 11 years 11 months
Thanks: 6547 time(s)
Ireland


(IMG:https://metalarea.org/images/audiocovers/2020_Jan/acov_tid332356_thumb.jpg)

*Artist: Various Artists
*Album: Sonic Seducer: Cold Hands Seduction 214 [compilation]
*Year: 2019
*Genre: Various Gothic
*Country: Many (IMG:https://metalarea.org/forum/style_images/flags/Many.png)
*Format: mp3@CBR320kbps
*Size: 110MB

Tracklist:
01. Leaves' Eyes - Serkland
02. Eden Weint Im Grab - Himmelsstürmer
03. Heiter Bis Folkig - Saufen Für Den Weltfrieden
04. Mills - Engel
05. Fractal Age - Not Yet
06. Tension Control - The World Is Going Down
07. DaGeist - Kiss Or Kill
08. On The Floor - Chain
09. Formicarius - Early Will I Seek Thee
10. Reichsfeind - Riots
11. Intent:Outtake - Singularity
******************************
Total playing time: 49:16

Technical info
(IMG:https://metalarea.org/images/spectrogram/2020_Jan/63cb790f729aaa02611ef3e7f7aabf61.png)
Input File: 07 Kiss Or Kill.mp3
Channels : 2
Sample Rate : 44100
Precision : 16-bit
Duration : 00:03:47.78 = 10044966 samples = 17083.3 CDDA sectors
File Size : 9.27M
Bit Rate : 326k
Sample Encoding: MPEG audio (layer I, II or III)
Comments :
Title=Kiss Or Kill
Artist=DaGeist
Album=Cold Hands Seduction Vol. 214
Tracknumber=07/11
Year=2019
Genre=Darkwave



Register


Go to the top of the page
  Insert nick Quick quote
+Quote Post

Reply to this topicStart new topic
1 User(s) are reading this topic (1 Guests and 0 Anonymous Users)
0 Members:

 



- Lo-Fi Version Support form
Copyrights and abuse reports form
Time is now: 3rd April 2020 - 08:33:13