Welcome Guest ( Log In | Register )

> Releases Upload / Добавление релизов

Добавить релиз тут / Click here to add release
Рекомендованные обменники / Recommended file shares

> Thorybos - The Foul And The Flagrant [ep] (2019), Black/Death Metal (D5)
post Jan 8 2020, 14:46:40
Post #1

I hate you all
**************
Group: Металариец
Posts: 2,192
Releases: 76
From: Ukraine
On Forums: 12 years 9 months
Thanks: 5548 time(s)
Ukraine


(IMG:https://metalarea.org/images/audiocovers/2020_Jan/acov_tid332370_thumb.jpg)

*Artist: Thorybos
*Album: The Foul And The Flagrant [ep]
*Year: 2019
*Genre: Black/Death Metal
*Country: Germany (IMG:https://metalarea.org/forum/style_images/flags/Germany.png)
*Format: mp3@CBR320kbps
*Size: 42MB

Tracklist:
1. Kephalomantic Necrophany 03:13
2. Teeth, Tongues and Rites 04:31
3. Khor Virap 02:54
4. Immured with the Deceased 03:53
5. Morbid Consecration 03:09
6. Darkness Attack 02:38
******************************
Total playing time: 20:18

Extended info
CD-rip с родного диска , копия № 120 из 300


Technical info
(IMG:https://metalarea.org/images/spectrogram/2020_Jan/239da92958a0d9b6d973db65f1ef3096.png)
Input File: 01 Kephalomantic Necrophany.mp3
Channels : 2
Sample Rate : 44100
Precision : 16-bit
Duration : 00:03:13.00 = 8511300 samples = 14475 CDDA sectors
File Size : 7.72M
Bit Rate : 320k
Sample Encoding: MPEG audio (layer I, II or III)
Comments :
Title=Kephalomantic Necrophany
Artist=Thorybos
Album=The Foul and the Flagrant
Tracknumber=1
Year=2019
Genre=Black Metal



Register


Go to the top of the page
  Insert nick Quick quote
+Quote Post
 
Start new topic
Replies (1 - 3)
post Jan 8 2020, 20:45:59
Post #2

I hate you all
**************
Group: Металариец
Posts: 2,192
Releases: 76
From: Ukraine
On Forums: 12 years 9 months
Thanks: 5548 time(s)
Ukraine


Register


Go to the top of the page
  Insert nick Quick quote
+Quote Post
post Jan 9 2020, 00:45:08
Post #3

Два Литра
**
Group: Завсегдатай
Posts: 143
Releases: 0
On Forums: 3 years 6 months
Thanks: 14 time(s)
Unknown


камрад флачок подкинь пожалуйста (IMG:style_emoticons/default/m0114.gif)
Go to the top of the page
  Insert nick Quick quote
+Quote Post
post Jan 16 2020, 01:22:17
Post #4

Два Литра
**
Group: Завсегдатай
Posts: 140
Releases: 32
On Forums: 12 years 2 months
Thanks: 1305 time(s)
Portugal


Go to the top of the page
  Insert nick Quick quote
+Quote Post

Reply to this topicStart new topic
1 User(s) are reading this topic (1 Guests and 0 Anonymous Users)
0 Members:

 



- Lo-Fi Version Support form
Copyrights and abuse reports form
Time is now: 21st February 2020 - 16:47:35