Welcome Guest ( Log In | Register )

> И неформату есть предел.

Рэп/хип-хоп/шансон/поп удаляются. Для них есть свои порталы.

 
Reply to this topicStart new topic
> G.I.S.M - Detestation (1984), Metal Punk
post Jan 8 2020, 23:00:18
Post #1

Шесть Литров
******
Group: Металариец
Posts: 533
Releases: 0
On Forums: 2 months 3 weeks
Thanks: 394 time(s)
Russian Federation


(IMG:http://metalarea.org/images/audiocovers/2020_Jan/acov_tid332385_thumb.jpg)

*Artist: G.I.S.M
*Album: Detestation
*Year: 1984
*Genre: Metal Punk
*Country: Japan (IMG:http://metalarea.org/forum/style_images/flags/Japan.png)
*Format: mp3@CBR320kbps
*Size: 68MB

Tracklist:
1. Endless Blockads For The Pussyfooter 1
2. Death Agohies And Screams
3. A.B.C. Weapons
4. Nih Nightmare
5. Document One
6. (Tere Their) Syphilitic Vaginas To Pieces
7. Nuclear Armed Hogs
8. Anthem
9. Hidden At 12 Min 49 Sec.
******************************
Total playing time: 1:06:00

(IMG:http://metalarea.org/images/youtube.png)

Technical info
(IMG:http://metalarea.org/images/spectrogram/2020_Jan/557fe6cfe90cbac348df26236192e810.png)
Input File: 01 Endless Blockades for the Pussyfooter 1.mp3
Channels : 2
Sample Rate : 44100
Precision : 16-bit
Duration : 00:03:45.68 = 9952400 samples = 16925.9 CDDA sectors
File Size : 9.06M
Bit Rate : 321k
Sample Encoding: MPEG audio (layer I, II or III)
Comments :
Title=Endless Blockades for the Pussyfooter
Artist=G.I.S.M.
Album=DeTesTaTioN
Tracknumber=1
Genre=PunkNotProfit



Register


Go to the top of the page
  Insert nick Quick quote
+Quote Post
post Jan 17 2020, 20:17:37
Post #2

Маньяк
**********
Group: Металариец
Posts: 1,058
Releases: 14
On Forums: 11 years 4 months
Thanks: 890 time(s)
Russian Federation


В 2015 вышла сборка Determination, в основном ее и слушаю, там этот альбом плюс треки с разных компиляций, иными словами самое крутое, что было у группы. Дальше по настроению.
Go to the top of the page
  Insert nick Quick quote
+Quote Post

Reply to this topicStart new topic
1 User(s) are reading this topic (1 Guests and 0 Anonymous Users)
0 Members:

 



- Lo-Fi Version Support form
Copyrights and abuse reports form
Time is now: 24th February 2020 - 10:00:20