Welcome Guest ( Log In | Register )

> Ozzy Osbourne - Ordinary Man [single] (2020), Heavy Metal/Hard Rock (D)
post Jan 9 2020, 22:04:55
Post #1

Семь Литров
*******
Group: Металариец
Posts: 787
Releases: 23
From: Saint-Petersburg
On Forums: 10 years 6 months
Thanks: 1770 time(s)
Russian Federation


(IMG:http://metalarea.org/images/audiocovers/2020_Jan/acov_tid332437_thumb.jpg)

*Artist: Ozzy Osbourne
*Album: Ordinary Man [single]
*Year: 2020
*Genre: Heavy Metal/Hard Rock
*Country: United Kingdom (IMG:http://metalarea.org/forum/style_images/flags/United%20Kingdom.png)
*Format: mp3@CBR320kbps
*Size: 12MB

Tracklist:
1. Ordinary Man 05:02
******************************
Total playing time: 5:02

Extended info
.feat Elton John


Technical info
(IMG:http://metalarea.org/images/spectrogram/2020_Jan/4abb14766cba2aea7bba8de255161407.png)
Input File: 01 . Ordinary Man.mp3
Channels : 2
Sample Rate : 44100
Precision : 16-bit
Duration : 00:05:01.81 = 13309777 samples = 22635.7 CDDA sectors
File Size : 13.1M
Bit Rate : 348k
Sample Encoding: MPEG audio (layer I, II or III)
Comments :
Title=Ordinary Man
Artist=䔀氀琀漀渀 䨀漀栀渀
Album=Ordinary Man
Tracknumber=1
Year=2020
Genre=Rock
Discnumber=1



Register


Go to the top of the page
  Insert nick Quick quote
+Quote Post
 
Start new topic
Replies (1 - 9)
post Jan 12 2020, 13:15:28
Post #2

Три Литра
***
Group: Завсегдатай
Posts: 202
Releases: 0
From: Kiev
On Forums: 11 years 2 months
Thanks: 43 time(s)
Ukraine


там вроде как и Слэш на гитаре
Go to the top of the page
  Insert nick Quick quote
+Quote Post
post Jan 12 2020, 13:19:27
Post #3

Семь Литров
*******
Group: Металариец
Posts: 760
Releases: 0
On Forums: 4 months 3 days
Thanks: 583 time(s)
Russian Federation


Bruce, да, гостевое соло Слэша, и ещё Маккаган на басу.
Go to the top of the page
  Insert nick Quick quote
+Quote Post
post Jan 14 2020, 17:11:20
Post #4

Group: Подсевший
Posts: 48
Releases: 0
On Forums: 2 months 2 weeks
Thanks: 13 time(s)
Unknown


Получилось в духе первого сингла Under the Graveyard
Лирично и как всегда ярко благодаря вокалу Оззи. А вот когда читаешь текста, складывается впечатления что дедушка как будто готовится переступить "порог вечности".
p.s. долгих лет жизни патриарху


Go to the top of the page
  Insert nick Quick quote
+Quote Post
post Jan 20 2020, 09:47:28
Post #5

Маньяк
**********
Group: Металариец
Posts: 1,385
Releases: 0
From: Луцьк
On Forums: 11 years 11 months
Thanks: 764 time(s)
Ukraine


Не знаю почему, но песня очень классно лягла на душу!
Go to the top of the page
  Insert nick Quick quote
+Quote Post
post Jan 20 2020, 09:51:49
Post #6

Маньяк
**********
Group: Металариец
Posts: 1,247
Releases: 0
From: украина г.Мелитополь
On Forums: 12 years 2 months
Thanks: 888 time(s)
Ukraine


ЦИТАТА(Ambercandle @ Jan 9 2020, 23:04:55) *
Extended info .feat Elton John

(IMG:style_emoticons/default/fear.gif) (IMG:style_emoticons/default/17.gif)
Go to the top of the page
  Insert nick Quick quote
+Quote Post
post Jan 20 2020, 12:12:26
Post #7

Маньяк
**********
Group: Металариец
Posts: 1,385
Releases: 0
From: Луцьк
On Forums: 11 years 11 months
Thanks: 764 time(s)
Ukraine


Он здесь вписался как влитой!

PS Не слушаю Елтона от слова "совсем". Но против факта не поспоришь.
Go to the top of the page
  Insert nick Quick quote
+Quote Post
post Jan 20 2020, 13:20:25
Post #8

brutalcesar
**************
Group: Металариец
Posts: 17,899
Releases: 67
From: Рязань
On Forums: 11 years 2 months
Thanks: 9631 time(s)
Russian Federation


Да Элтона здесь с гулькин *уй! Особо он погоды не делает
Go to the top of the page
  Insert nick Quick quote
+Quote Post
post Jan 21 2020, 17:40:27
Post #9

Мегаманьяк
***********
Group: Металариец
Posts: 1,577
Releases: 1
On Forums: 5 years 5 months
Thanks: 592 time(s)
Tajikistan


https://lenta.ru/news/2020/01/21/osbourne/?...HUjN8bmKkP7mDnI

печально! (IMG:style_emoticons/default/6.gif)
Go to the top of the page
  Insert nick Quick quote
+Quote Post
post Jan 21 2020, 17:53:17
Post #10

Правь статус, ####!111
**************
Group: Металариец
Posts: 45,716
Releases: 704
On Forums: 10 years 9 months
Thanks: 37678 time(s)
Russian Federation


Здоровья Айрон Мэну богатырского!
Go to the top of the page
  Insert nick Quick quote
+Quote Post

Reply to this topicStart new topic
2 User(s) are reading this topic (2 Guests and 0 Anonymous Users)
0 Members:

 



- Lo-Fi Version Support form
Copyrights and abuse reports form
Time is now: 1st April 2020 - 17:47:50