Welcome Guest ( Log In | Register )

> Releases Upload / Добавление релизов

Добавить релиз тут / Click here to add release
Рекомендованные обменники / Recommended file shares

> Vortex Unit - The Bringer Of Sun (2020), Blackened Death Metal
post Jan 10 2020, 06:11:35
Post #1

Правь статус, ####!111
**************
Group: Металариец
Posts: 20,635
Releases: 14084
From: Г.Харьков
On Forums: 7 years 9 months
Thanks: 248533 time(s)
Unknown


(IMG:http://metalarea.org/images/audiocovers/2020_Jan/acov_tid332444_thumb.jpg)

*Artist: Vortex Unit
*Album: The Bringer Of Sun
*Year: 2020
*Genre: Blackened Death Metal
*Country: Slovakia (IMG:http://metalarea.org/forum/style_images/flags/Slovakia.png)
*Format: mp3@CBR320kbps
*Size: 104MB

Tracklist:
1. Into the Saturnine Realm
2. The Bringer of Sun
3. A Broken Branch
4. I Speak With Verity
5. I and My...
6. ...Creations
7. Visions
8. The Cruise of Sanity
9. The Fall of the Gilded City
******************************
Total playing time: 45:21




Extended info
Wigo Mortarius Guitars (rhythm), Vocals (2011-present)
See also: ex-The Crypt, ex-The Cryptosy, ex-Doomas
Siren Vocals (soprano) (2011-present)
Vaco Bass (2013-present)
See also: Abort to Be Born, Ravenarium
Anguis Guitars, Vocals (2013-present)
See also: Ravenarium



Technical info
(IMG:http://metalarea.org/images/spectrogram/2020_Jan/1de30b9add181db3c6fc315e38cc5bef.png)
Input File: 03 - A Broken Branch.mp3
Channels : 2
Sample Rate : 44100
Precision : 16-bit
Duration : 00:04:41.41 = 12410005 samples = 21105.5 CDDA sectors
File Size : 11.3M
Bit Rate : 322k
Sample Encoding: MPEG audio (layer I, II or III)
Comments :
Title=A Broken Branch
Artist=Vortex Unit
Album=The Bringer of Sun
Tracknumber=3
Year=2020



Register


Go to the top of the page
  Insert nick Quick quote
+Quote Post
 
Start new topic
Replies (1 - 1)
post Jan 15 2020, 19:12:53
Post #2

Литр
*
Group: Подсевший
Posts: 86
Releases: 0
On Forums: 11 years 8 months
Thanks: 13 time(s)
Russian Federation


Довольно приятный музончик фоном зашёл хорошо у тётки приятный голос!!!!
Go to the top of the page
  Insert nick Quick quote
+Quote Post

Reply to this topicStart new topic
1 User(s) are reading this topic (1 Guests and 0 Anonymous Users)
0 Members:

 



- Lo-Fi Version Support form
Copyrights and abuse reports form
Time is now: 20th February 2020 - 20:00:37