Welcome Guest ( Log In | Register )

> Releases Upload / Добавление релизов

Добавить релиз тут / Click here to add release
Рекомендованные обменники / Recommended file shares

> Culak - Imagine (2020), Post-Black/Doom Metal (D4)
post Jan 10 2020, 18:31:31
Post #1

Каждое ваше "Спасибо" помогает мне понять, что я делаю новости не напрасно.
**************
Group: Металариец
Posts: 2,269
Releases: 2001
From: Одесса
On Forums: 11 years 7 months
Thanks: 17841 time(s)
Ukraine


(IMG:http://metalarea.org/images/audiocovers/2020_Jan/acov_tid332490_thumb.jpg)

*Artist: Culak
*Album: Imagine
*Year: 2020
*Genre: Post-Black/Doom Metal
*Country: United States (IMG:http://metalarea.org/forum/style_images/flags/United%20States.png)
*Format: mp3@CBR320kbps
*Size: 136MB

Tracklist:
1.Weaved 05:17
2.Hero 05:37
3.Arrhythmia 06:28
4.Enchanted 06:00
5.Kintsugi 04:32
6.Memories 05:27
7.Nothing Was Everything 05:29
8.Acquiescence 05:09
9.Sown 05:55
10.Beyond 07:25
******************************
Total playing time: 57:19



Extended info
Line - up:

Christian Culak - All instruments, Vocals (ex-Eden Descent, ex-Pyroclastic Aurora)

(IMG:https://www.metal-archives.com/images/3/5/4/0/3540458954_photo.jpg?2252)


Technical info
(IMG:http://metalarea.org/images/spectrogram/2020_Jan/40929e13d0799a00742d6782032c9762.png)
Input File: 10. Beyond.mp3
Channels : 2
Sample Rate : 44100
Precision : 16-bit
Duration : 00:07:25.34 = 19639362 samples = 33400.3 CDDA sectors
File Size : 17.8M
Bit Rate : 320k
Sample Encoding: MPEG audio (layer I, II or III)
Comments :
Title=Beyond
Artist=Culak
Album=Imagine
Tracknumber=10
Year=2020
Genre=Post-Black/Doom Metal



Register


Go to the top of the page
  Insert nick Quick quote
+Quote Post
 
Start new topic
Replies (1 - 2)
post Jan 14 2020, 14:05:40
Post #2

Семь Литров
*******
Group: Металариец
Posts: 701
Releases: 0
From: South Of Heaven
On Forums: 12 years 5 months
Thanks: 314 time(s)
Ukraine


https://youtu.be/4ELdAHxPKUQ
Go to the top of the page
  Insert nick Quick quote
+Quote Post
post Jan 14 2020, 14:49:55
Post #3

Литр
*
Group: Подсевший
Posts: 76
Releases: 0
On Forums: 6 months 2 weeks
Thanks: 6 time(s)
Russian Federation


Водяной альбом с глухой дешевой гитарой. Развелось этих ван ман проектов немеренно, которые на компе музыку пишут.
Go to the top of the page
  Insert nick Quick quote
+Quote Post

Reply to this topicStart new topic
2 User(s) are reading this topic (2 Guests and 0 Anonymous Users)
0 Members:

 



- Lo-Fi Version Support form
Copyrights and abuse reports form
Time is now: 24th January 2020 - 00:20:50