Welcome Guest ( Log In | Register )

> Releases Upload / Добавление релизов

Добавить релиз тут / Click here to add release
Рекомендованные обменники / Recommended file shares

> Fjord - Midvinterblotets Skaldersånger (2020), Melodic Folk/Black Metal (D8)
post Jan 11 2020, 02:43:10
Post #1

Правь статус, ####!111
**************
Group: Металариец
Posts: 4,180
Releases: 1115
From: Brazil
On Forums: 7 years 11 months
Thanks: 41168 time(s)
Brazil


(IMG:https://metalarea.org/images/audiocovers/2020_Jan/acov_tid332507_thumb.jpg)

*Artist: Fjord
*Album: Midvinterblotets Skaldersånger
*Year: 2020
*Genre: Melodic Folk/Black Metal
*Country: Sweden (IMG:https://metalarea.org/forum/style_images/flags/Sweden.png)
*Format: mp3@CBR320kbps
*Size: 107MB

Tracklist:
1. Den Svarta Skogen 04:19
2. Vintersol 05:51
3. Elin i Horsnäs 07:12
4. Óðinn, Take My Soul! 04:07
5. Dit De Ändlösa Fjordarna Tar Oss 08:59
6. Iskalla Hem 08:32
7. Trolltunga 07:18
******************************
Total playing time: 46:18

(IMG:https://metalarea.org/images/youtube.png)

Technical info
(IMG:https://metalarea.org/images/spectrogram/2020_Jan/9f0ba52356d3ab17ee79e6402c53bded.png)
Input File: 01 Den Svarta Skogen.mp3
Channels : 2
Sample Rate : 44100
Precision : 16-bit
Duration : 00:04:19.07 = 11424987 samples = 19430.2 CDDA sectors
File Size : 10.4M
Bit Rate : 320k
Sample Encoding: MPEG audio (layer I, II or III)
Comments :
Title=Den Svarta Skogen
Artist=Fjord
Album=Midvinterblotets Skaldersånger
Tracknumber=1
Year=2020



Register


Go to the top of the page
  Insert nick Quick quote
+Quote Post
 
Start new topic
Replies (1 - 3)
post Jan 11 2020, 17:44:21
Post #2

Пять Литров
*****
Group: Металариец
Posts: 486
Releases: 2
On Forums: 9 years 3 months
Thanks: 206 time(s)
Belarus


огонь.вспомнился manegarm (1998) Nordstjarnans Tildsalder и щас такое играют финны havukruunu
Go to the top of the page
  Insert nick Quick quote
+Quote Post
post Jan 14 2020, 12:35:02
Post #3

Necromancer
Group Icon
Group: Curation team
Posts: 10,996
Releases: 271
From: Зеленоград
On Forums: 13 years 3 months
Thanks: 8807 time(s)
Russian Federation


Альбом - супер! (IMG:style_emoticons/default/dwarf-1.gif)
Go to the top of the page
  Insert nick Quick quote
+Quote Post
post Jan 21 2020, 08:58:34
Post #4

Правь статус, ####!111
**************
Group: Металариец
Posts: 2,143
Releases: 0
From: MoscoW
On Forums: 13 years 1 month
Thanks: 1921 time(s)
Russian Federation


Go to the top of the page
  Insert nick Quick quote
+Quote Post

Reply to this topicStart new topic
2 User(s) are reading this topic (2 Guests and 0 Anonymous Users)
0 Members:

 



- Lo-Fi Version Support form
Copyrights and abuse reports form
Time is now: 23rd January 2020 - 23:31:55