Welcome Guest ( Log In | Register )

> Vvilderness - Dark Waters (2020), Atmospheric/Post-Black Metal
post Jan 11 2020, 09:02:40
Post #1

Маньяк
**********
Group: Металариец
Posts: 1,114
Releases: 940
From: Новороссийск
On Forums: 9 years 2 months
Thanks: 17923 time(s)
Russian Federation


(IMG:https://metalarea.org/images/audiocovers/2020_Jan/acov_tid332518_thumb.jpg)

*Artist: Vvilderness
*Album: Dark Waters
*Year: 2020
*Genre: Atmospheric/Post-Black Metal
*Country: Hungary (IMG:https://metalarea.org/forum/style_images/flags/Hungary.png)
*Format: mp3@CBR320kbps
*Size: 87MB

Tracklist:
01. Dark Waters 06:50
02. Danu's Tears 05:47
03. Mist Pillars '19 05:52
04. It Comes With The Rain 05:39
05. Havasok / Snowy Mountains 08:16
06. Wilderness 05:32
******************************
Total playing time: 37:58



Technical info
(IMG:https://metalarea.org/images/spectrogram/2020_Jan/d2596f4a9a96539ceb84b62dcdcccb2e.png)
Input File: 01. Dark Waters.mp3
Channels : 2
Sample Rate : 44100
Precision : 16-bit
Duration : 00:06:50.83 = 18117471 samples = 30812 CDDA sectors
File Size : 16.4M
Bit Rate : 320k
Sample Encoding: MPEG audio (layer I, II or III)
Comments :
Title=Dark Waters
Artist=Vvilderness
Album=Dark Waters
Tracknumber=01
Year=2020
Genre=Black Metal



Register


Go to the top of the page
  Insert nick Quick quote
+Quote Post
 
Start new topic
Replies (1 - 6)
post Jan 11 2020, 16:48:00
Post #2

Туфлєблек то є файно
**************
Group: Металариец
Posts: 2,130
Releases: 0
From: Україна
On Forums: 11 years 6 months
Thanks: 1462 time(s)
Ukraine


ОООООО выкладывайте по возможности побольше проектов этого дядьки, я некоторые слушал, очень красиво, приятно и трогательно. Слушается очень классно, вернее слушабельность неимоверная. Красивая музыка. Спасибо.


Thanks:
Go to the top of the page
  Insert nick Quick quote
+Quote Post
post Jan 11 2020, 17:22:01
Post #3

Восемь Литров
********
Group: Металариец
Posts: 811
Releases: 2
On Forums: 9 years 9 months
Thanks: 349 time(s)
Belarus


Realm of Wolves это круто.его прожект да да.



Thanks:
Go to the top of the page
  Insert nick Quick quote
+Quote Post
post Jan 11 2020, 17:59:12
Post #4

Туфлєблек то є файно
**************
Group: Металариец
Posts: 2,130
Releases: 0
From: Україна
On Forums: 11 years 6 months
Thanks: 1462 time(s)
Ukraine


ЦИТАТА(Battaleon @ Jan 11 2020, 20:22:01) *
Realm of Wolves это круто.его прожект да да.

вроде да, я тоже тут по бендкампу лазил, смотрел, Realm of Wolves, Stvannyr, Silent Island, Black Hill, вроде всё его или около его) (IMG:style_emoticons/default/9.gif) (IMG:style_emoticons/default/9.gif) (IMG:style_emoticons/default/9.gif)


Thanks:
Go to the top of the page
  Insert nick Quick quote
+Quote Post
post Jan 12 2020, 11:02:05
Post #5

I hate you all
**************
Group: Металариец
Posts: 2,262
Releases: 76
From: Ukraine
On Forums: 13 years 2 months
Thanks: 5694 time(s)
Ukraine


Go to the top of the page
  Insert nick Quick quote
+Quote Post
post Jan 14 2020, 09:19:24
Post #6

Правь статус, ####!111
**************
Group: Металариец
Posts: 3,064
Releases: 8
From: Dnipro
On Forums: 11 years 11 months
Thanks: 1005 time(s)
Ukraine


Так себе, по крайней мере жить без этого альбома можно и дальше не задумываясь что что то пропустил.
Go to the top of the page
  Insert nick Quick quote
+Quote Post
post Jan 14 2020, 17:01:29
Post #7

Group: Подсевший
Posts: 48
Releases: 0
On Forums: 5 months 3 weeks
Thanks: 13 time(s)
Unknown


Красивая музыка от талантливого многостаночника из Венгрии. Почти все его проекты которые я слышал такие же душевные (IMG:style_emoticons/default/20.gif)
Go to the top of the page
  Insert nick Quick quote
+Quote Post

Reply to this topicStart new topic
1 User(s) are reading this topic (1 Guests and 0 Anonymous Users)
0 Members:

 



- Lo-Fi Version Support form
Copyrights and abuse reports form
Time is now: 9th July 2020 - 19:23:17