Welcome Guest ( Log In | Register )

> И неформату есть предел.

Рэп/хип-хоп/шансон/поп удаляются. Для них есть свои порталы.

 
Reply to this topicStart new topic
> Quoit - Lounge (1996), Drum & Bass/Illbient/Industrial
post Jan 11 2020, 12:15:38
Post #1

Три Литра
***
Group: Завсегдатай
Posts: 229
Releases: 8
From: Санкт-Петербург
On Forums: 14 years 4 months
Thanks: 808 time(s)
Russian Federation


(IMG:http://metalarea.org/images/audiocovers/2020_Jan/acov_tid332526_thumb.jpg)

*Artist: Quoit
*Album: Lounge
*Year: 1996
*Genre: Drum & Bass/Illbient/Industrial
*Country: United Kingdom (IMG:http://metalarea.org/forum/style_images/flags/United%20Kingdom.png)
*Format: mp3@CBR320kbps
*Size: 130MB

Tracklist:
01. Phoner 07:04
02. Chase 07:11
03. Wandering 08:24
04. That Way 07:02
05. Stranger 05:38
06. Set Up 05:47
07. Habit 08:27
08. Last Exit 07:42
******************************
Total playing time: 57:16

(IMG:http://metalarea.org/images/youtube.png)

Extended info
Еще один из проектов Мика Харриса, на этот раз драм'н'бэйсовой направленности.


Technical info
(IMG:http://metalarea.org/images/spectrogram/2020_Jan/0542d025d22a451881ec3306149f9f83.png)
Input File: 01 - Phoner.mp3
Channels : 2
Sample Rate : 44100
Precision : 16-bit
Duration : 00:07:04.12 = 18703868 samples = 31809.3 CDDA sectors
File Size : 17.0M
Bit Rate : 320k
Sample Encoding: MPEG audio (layer I, II or III)
Comments :
Title=Phoner
Artist=Quoit
Album=Lounge
Tracknumber=01
Year=1996
Genre=Industrial/Illbient/Drum & Bass



Register


Go to the top of the page
  Insert nick Quick quote
+Quote Post

Reply to this topicStart new topic
1 User(s) are reading this topic (1 Guests and 0 Anonymous Users)
0 Members:

 



- Lo-Fi Version Support form
Copyrights and abuse reports form
Time is now: 28th September 2020 - 13:55:53