Welcome Guest ( Log In | Register )

> И неформату есть предел.

Рэп/хип-хоп/шансон/поп удаляются. Для них есть свои порталы.

 
Reply to this topicStart new topic
> Aural Blasphemy - Catharsis (2000), Rhythmic Noise/Industrial
post Jan 11 2020, 20:04:34
Post #1

Два Литра
**
Group: Завсегдатай
Posts: 150
Releases: 4
From: Санкт-Петербург
On Forums: 13 years 8 months
Thanks: 376 time(s)
Russian Federation


(IMG:http://metalarea.org/images/audiocovers/2020_Jan/acov_tid332546_thumb.jpg)

*Artist: Aural Blasphemy
*Album: Catharsis
*Year: 2000
*Genre: Rhythmic Noise/Industrial
*Country: United States (IMG:http://metalarea.org/forum/style_images/flags/United%20States.png)
*Format: mp3@CBR320kbps
*Size: 133MB

Tracklist:
01. Nucleus 05:20
02. Iconoclast 06:16
03. Crisis 04:13
04. Sonomech V2 04:53
05. Prolapse 03:12
06. Sledge 04:40
07. Descent 03:10
08. Movement 05:57
09. Transcend 05:37
10. Betrayal 05:41
11. Schiz 04:46
12. Suffocation 03:43
******************************
Total playing time: 57:28

(IMG:http://metalarea.org/images/youtube.png)

Technical info
(IMG:http://metalarea.org/images/spectrogram/2020_Jan/be2024bd1c48f749838b4a108cc750a3.png)
Input File: 03 - Crisis.mp3
Channels : 2
Sample Rate : 44100
Precision : 16-bit
Duration : 00:04:13.22 = 11167090 samples = 18991.6 CDDA sectors
File Size : 10.1M
Bit Rate : 320k
Sample Encoding: MPEG audio (layer I, II or III)
Comments :
Title=Crisis
Artist=Aural Blasphemy
Album=Catharsis
Tracknumber=03
Year=2000
Genre=Rhythmic Noise/Industrial



Register


Go to the top of the page
  Insert nick Quick quote
+Quote Post

Reply to this topicStart new topic
1 User(s) are reading this topic (1 Guests and 0 Anonymous Users)
0 Members:

 



- Lo-Fi Version Support form
Copyrights and abuse reports form
Time is now: 28th January 2020 - 23:15:38