Welcome Guest ( Log In | Register )

> Brånd & Häxenzijrkell - Seis Wies Sei/Der Totenrijtt [split] (2020), Raw Black Metal | Black Metal (D5)
post Jan 11 2020, 22:59:48
Post #1

Правь статус, ####!111
**************
Group: Металариец
Posts: 4,376
Releases: 1234
From: Brazil
On Forums: 8 years 4 months
Thanks: 46249 time(s)
Brazil


(IMG:https://metalarea.org/images/audiocovers/2020_Jan/acov_tid332550_thumb.jpg)

*Artist: Brånd & Häxenzijrkell
*Album: Seis Wies Sei/Der Totenrijtt [split]
*Year: 2020
*Genre: Raw Black Metal | Black Metal
*Country: Austria (IMG:https://metalarea.org/forum/style_images/flags/Austria.png) | Germany (IMG:https://metalarea.org/forum/style_images/flags/Germany.png)
*Format: mp3@CBR320kbps
*Size: 33MB

Tracklist:
Brånd:
1. Seis wies Sei 06:56
Häxenzijrkell:
2. Der Totenrijtt 07:06
******************************
Total playing time: 14:02




Technical info
(IMG:https://metalarea.org/images/spectrogram/2020_Jan/5d6ceb0bb5c97e6c41273ab21751bdc5.png)
Input File: 02. Häxenzijrkell - Der Totenrijtt.mp3
Channels : 2
Sample Rate : 44100
Precision : 16-bit
Duration : 00:07:08.09 = 18878857 samples = 32106.9 CDDA sectors
File Size : 17.1M
Bit Rate : 320k
Sample Encoding: MPEG audio (layer I, II or III)
Comments :
Title=Der Totenrijtt
Artist=Häxenzijrkell
Album=Seis wies Sei / Der Totenrijtt
Tracknumber=2
Year=2020



Register


Go to the top of the page
  Insert nick Quick quote
+Quote Post
 
Start new topic
Replies (1 - 1)
post Jan 14 2020, 16:51:25
Post #2

Group: Подсевший
Posts: 48
Releases: 0
On Forums: 4 months 2 weeks
Thanks: 13 time(s)
Unknown


Крутой сплит! Особенно Häxenzijrkell (IMG:style_emoticons/default/true_black.gif)
Go to the top of the page
  Insert nick Quick quote
+Quote Post

Reply to this topicStart new topic
1 User(s) are reading this topic (1 Guests and 0 Anonymous Users)
0 Members:

 



- Lo-Fi Version Support form
Copyrights and abuse reports form
Time is now: 3rd June 2020 - 10:26:59