Welcome Guest ( Log In | Register )

> Releases Upload / Добавление релизов

Добавить релиз тут / Click here to add release
Рекомендованные обменники / Recommended file shares

> Gråt Strigoi - A Path Through Ashes (2020), Black Metal
post Jan 12 2020, 15:05:31
Post #1

Правь статус, ####!111
**************
Group: Металариец
Posts: 20,246
Releases: 13785
From: Г.Харьков
On Forums: 7 years 8 months
Thanks: 240730 time(s)
Unknown


(IMG:http://metalarea.org/images/audiocovers/2020_Jan/acov_tid332565_thumb.jpg)

*Artist: Gråt Strigoi
*Album: A Path Through Ashes
*Year: 2020
*Genre: Black Metal
*Country: United Kingdom (IMG:http://metalarea.org/forum/style_images/flags/United%20Kingdom.png)
*Format: mp3@CBR320kbps
*Size: 77MB

Tracklist:
1. All Shall Come to Pass 01:30 instrumental
2. Journey's Last Hardship 01:30
3. Born in Flame 03:40
4. O Death! One Last Caress 00:57 instrumental
5. Whispers in the Wind 03:20
6. The Fool Who Pleaded for Forgiveness 06:47
7. Destroyer of Light 11:43
8. All Shall Come to Pass Again 03:56 instrumental
******************************
Total playing time: 33:23




Extended info
Josh Brown Guitars, Drum Programming, Drums, Noise, Micro-tonal Prepared Guitar and Chanting
Kieran Gilroy Vocals, Micro-tonal Prepared Guitar and Chanting


Technical info
(IMG:http://metalarea.org/images/spectrogram/2020_Jan/54a9afbeefc4db8a6f35020c52024ec3.png)
Input File: 06 - The Fool Who Pleaded for Forgiveness.mp3
Channels : 2
Sample Rate : 44100
Precision : 16-bit
Duration : 00:06:47.22 = 17958490 samples = 30541.6 CDDA sectors
File Size : 16.4M
Bit Rate : 322k
Sample Encoding: MPEG audio (layer I, II or III)
Comments :
Title=The Fool Who Pleaded for Forgiveness
Artist=Gråt Strigoi
Album=A Path Through Ashes
Tracknumber=6
Year=2020-01-07
Genre=Metal
Discnumber=1



Register


Go to the top of the page
  Insert nick Quick quote
+Quote Post
 
Start new topic
Replies (1 - 2)
post Jan 13 2020, 10:20:26
Post #2

кручу наждак
**************
Group: Металариец
Posts: 4,209
Releases: 99
From: Самара
On Forums: 9 years 8 months
Thanks: 3296 time(s)
Russian Federation


(Не)музыкальный мусор.
Я очень уважаю сочетание блэка с думом, но когда с блэком начинают смешивать фьюнерал, да еще оба ингредиента посредственного качества, это уже перебор.
Go to the top of the page
  Insert nick Quick quote
+Quote Post
post Jan 14 2020, 09:39:38
Post #3

Правь статус, ####!111
**************
Group: Металариец
Posts: 2,803
Releases: 8
From: Dnipro
On Forums: 11 years 6 months
Thanks: 887 time(s)
Ukraine


ЦИТАТА(judaz @ Jan 13 2020, 11:20:26) *
(Не)музыкальный мусор.
Я очень уважаю сочетание блэка с думом, но когда с блэком начинают смешивать фьюнерал, да еще оба ингредиента посредственного качества, это уже перебор.

Нет тут ни какого funeral doom, а есть очень посредственный depressive suicidal black metal
Go to the top of the page
  Insert nick Quick quote
+Quote Post

Reply to this topicStart new topic
2 User(s) are reading this topic (2 Guests and 0 Anonymous Users)
0 Members:

 



- Lo-Fi Version Support form
Copyrights and abuse reports form
Time is now: 18th January 2020 - 01:06:29