Welcome Guest ( Log In | Register )

> И неформату есть предел.

Рэп/хип-хоп/шансон/поп удаляются. Для них есть свои порталы.

> Nordvargr - Daath (2019), Industrial/Dark Ambient (D27)
post Jan 12 2020, 17:24:30
Post #1

Три Литра
***
Group: Завсегдатай
Posts: 229
Releases: 8
From: Санкт-Петербург
On Forums: 14 years 4 months
Thanks: 807 time(s)
Russian Federation


(IMG:http://metalarea.org/images/audiocovers/2020_Jan/acov_tid332566_thumb.jpg)

*Artist: Nordvargr
*Album: Daath
*Year: 2019
*Genre: Industrial/Dark Ambient
*Country: Sweden (IMG:http://metalarea.org/forum/style_images/flags/Sweden.png)
*Format: mp3@CBR320kbps
*Size: 85MB

Tracklist:
01. Inner Monarch Awakened 02:40
02. The Horsemen Ride Out On Foaming Steeds 04:41
03. Tabernakelvisa - The Redeemer And The Secret 03:49
04. Death Closes The Gates Of Time And Opens Those Of Eternity 04:38
05. Invocation Of The Unseen 04:20
06. As King, As Queen - When Kingdom Collide 05:13
07. The Light Of The Lord And The Black Sun Behind The Sun 06:16
08. Where There Is Word There Is Enlightenment 05:25
******************************
Total playing time: 37:01



Technical info
(IMG:http://metalarea.org/images/spectrogram/2020_Jan/9b632dd8302efa594af3ba514cc40031.png)
Input File: 02 - The Horsemen Ride Out On Foaming Steeds.mp3
Channels : 2
Sample Rate : 44100
Precision : 16-bit
Duration : 00:04:40.73 = 12380193 samples = 21054.8 CDDA sectors
File Size : 12.6M
Bit Rate : 360k
Sample Encoding: MPEG audio (layer I, II or III)
Comments :
Title=The Horsemen Ride Out On Foaming Steeds
Artist=Nordvargr
Album=Daath
Tracknumber=02
Year=2019
Genre=Industrial/Dark Ambient



Register


Go to the top of the page
  Insert nick Quick quote
+Quote Post
 
Start new topic
Replies (1 - 3)
post Jan 13 2020, 06:28:26
Post #2

врач педиатр-патологоанатом
*****
Group: Металариец
Posts: 476
Releases: 22
From: Кадыкчан
On Forums: 11 years 2 months
Thanks: 482 time(s)
Russian Federation


Хорошая работа, в духе вокально-ритмичных треков Trepaneringsritualen.
Go to the top of the page
  Insert nick Quick quote
+Quote Post
post Feb 2 2020, 20:29:45
Post #3

Три Литра
***
Group: Завсегдатай
Posts: 229
Releases: 8
From: Санкт-Петербург
On Forums: 14 years 4 months
Thanks: 807 time(s)
Russian Federation


Mediafire


Go to the top of the page
  Insert nick Quick quote
+Quote Post
post Feb 2 2020, 21:13:41
Post #4
BAN
Banned till
Oct 3 2020, 02:14:39



Вспоминается так MZ-412 - Infernal Affairs, а значит релиз Пригоден для Прослушивания
Go to the top of the page
  Insert nick Quick quote
+Quote Post

Reply to this topicStart new topic
1 User(s) are reading this topic (1 Guests and 0 Anonymous Users)
0 Members:

 



- Lo-Fi Version Support form
Copyrights and abuse reports form
Time is now: 23rd September 2020 - 10:46:59