Welcome Guest ( Log In | Register )

> Releases Upload / Добавление релизов

Добавить релиз тут / Click here to add release
Рекомендованные обменники / Recommended file shares

> Evil Joe - Endless Fecation (2020), Thrash Metal
post Jan 12 2020, 18:02:53
Post #1

Каждое ваше "Спасибо" помогает мне понять, что я делаю новости не напрасно.
**************
Group: Металариец
Posts: 2,347
Releases: 2072
From: Одесса
On Forums: 11 years 8 months
Thanks: 18922 time(s)
Ukraine


(IMG:http://metalarea.org/images/audiocovers/2020_Jan/acov_tid332569_thumb.jpg)

*Artist: Evil Joe
*Album: Endless Fecation
*Year: 2020
*Genre: Thrash Metal
*Country: Croatia (IMG:http://metalarea.org/forum/style_images/flags/Croatia.png)
*Format: mp3@CBR320kbps
*Size: 74MB

Tracklist:
1.Thrashing with the Devil 04:17
2.OD Yourself, Milan (Predoziraj se, Milane) 02:49
3.Fuck the Law 04:32
4.Gorilla Guerilla 03:24
5.Bad Taste! 03:46
6.Toxic Avenger 03:53
7.Snowgrave 04:04
8.No Karate in the Pit 00:52
9.Endless Fecation 03:45
******************************
Total playing time: 31:22



Technical info
(IMG:http://metalarea.org/images/spectrogram/2020_Jan/e81cd872e1bc593b846a6ef9e989e5b7.png)
Input File: 03. Fuck the law.mp3
Channels : 2
Sample Rate : 44100
Precision : 16-bit
Duration : 00:04:32.92 = 12035728 samples = 20468.9 CDDA sectors
File Size : 10.9M
Bit Rate : 320k
Sample Encoding: MPEG audio (layer I, II or III)
Comments :
Title=Fuck the law
Artist=Evil Joe
Album=Endless fecation
Tracknumber=3
Year=2020
Genre=144



Register


Go to the top of the page
  Insert nick Quick quote
+Quote Post
 
Start new topic
Replies (1 - 3)
post Jan 13 2020, 03:42:54
Post #2

\m/
Group Icon
Group: S-moderation team
Posts: 7,749
Releases: 19
From: Петропавловск-Камчатский
On Forums: 10 years 8 months
Thanks: 7448 time(s)
Russian Federation


Trash в чистом виде (IMG:style_emoticons/default/15.gif)
Go to the top of the page
  Insert nick Quick quote
+Quote Post
post Jan 14 2020, 09:43:50
Post #3

Правь статус, ####!111
**************
Group: Металариец
Posts: 2,854
Releases: 8
From: Dnipro
On Forums: 11 years 7 months
Thanks: 908 time(s)
Ukraine


Вот гады, украли мои ранние записи, когда я в 1984 году спёр гитару у местного школьного ВИА и пробовал запилить свой первый трэш альбом. (IMG:style_emoticons/default/15.gif)
Go to the top of the page
  Insert nick Quick quote
+Quote Post
post Jan 16 2020, 17:21:03
Post #4

Три Литра
***
Group: Завсегдатай
Posts: 201
Releases: 0
From: Kiev
On Forums: 11 years 1 month
Thanks: 42 time(s)
Ukraine


О чем песня № 2 , интересно ? (IMG:style_emoticons/default/hmm.gif)
Go to the top of the page
  Insert nick Quick quote
+Quote Post

Reply to this topicStart new topic
1 User(s) are reading this topic (1 Guests and 0 Anonymous Users)
0 Members:

 



- Lo-Fi Version Support form
Copyrights and abuse reports form
Time is now: 24th February 2020 - 09:55:33