Welcome Guest ( Log In | Register )

> И неформату есть предел.

Рэп/хип-хоп/шансон/поп удаляются. Для них есть свои порталы.

> Oceansize - Effloresce (2003), Alternative Rock
post Jan 12 2020, 18:41:36
Post #1

Два Литра
**
Group: Завсегдатай
Posts: 161
Releases: 6
From: Санкт-Петербург
On Forums: 13 years 8 months
Thanks: 442 time(s)
Russian Federation


(IMG:http://metalarea.org/images/audiocovers/2020_Jan/acov_tid332570_thumb.jpg)

*Artist: Oceansize
*Album: Effloresce
*Year: 2003
*Genre: Alternative Rock
*Country: United Kingdom (IMG:http://metalarea.org/forum/style_images/flags/United%20Kingdom.png)
*Format: mp3@CBR320kbps
*Size: 173MB

Tracklist:
01. I Am The Morning 04:18
02. Catalyst 06:40
03. One Day All This Could Be Yours 04:20
04. Massive Bereavement 09:59
05. Rinsed 03:58
06. You Wish 06:00
07. Remember Where You Are 05:22
08. Amputee 05:33
09. Unravel 02:50
10. Women Who Love Men Who Love Drugs 08:30
11. Saturday Morning Breakfast Show 09:04
12. Long Forgotten 08:58
******************************
Total playing time: 1:15:32

(IMG:http://metalarea.org/images/youtube.png)

Extended info
Не знаю, как правильно определить стиль, в котором играет группа, есть и весьма тяжелые фрагменты, а местами похоже на пост-рок... пусть будет альтернативный рок. Альбом отличный.


Technical info
(IMG:http://metalarea.org/images/spectrogram/2020_Jan/1e14f06e8feea71f3f689cbbbbe4d060.png)
Input File: 02 - Catalyst.mp3
Channels : 2
Sample Rate : 44100
Precision : 16-bit
Duration : 00:06:40.12 = 17645116 samples = 30008.7 CDDA sectors
File Size : 16.0M
Bit Rate : 320k
Sample Encoding: MPEG audio (layer I, II or III)
Comments :
Title=Catalyst
Artist=Oceansize
Album=Effloresce (Russian edition)
Tracknumber=02
Year=2003
Genre=Alternative Rock



Register


Thanks:
Go to the top of the page
  Insert nick Quick quote
+Quote Post
 
Start new topic
Replies (1 - 2)
post Jan 22 2020, 00:58:48
Post #2

Мегаманьяк
***********
Group: Металариец
Posts: 1,828
Releases: 0
From: Харьков
On Forums: 10 years 4 months
Thanks: 790 time(s)
Ukraine


ЦИТАТА(as71 @ Jan 12 2020, 19:41:36) *
Не знаю, как правильно определить стиль, в котором играет группа, есть и весьма тяжелые фрагменты, а местами похоже на пост-рок... пусть будет альтернативный рок

Здесь и прогрессивные моменты имеются. Приятный диск, лучший у группы. Длинные треки ближе к концу особенно нравятся.
Go to the top of the page
  Insert nick Quick quote
+Quote Post
post Jan 22 2020, 05:34:22
Post #3

Два Литра
**
Group: Завсегдатай
Posts: 161
Releases: 6
From: Санкт-Петербург
On Forums: 13 years 8 months
Thanks: 442 time(s)
Russian Federation


ЦИТАТА(Ghostb @ 22nd January 2020 - 02:58:48) *
Здесь и прогрессивные моменты имеются. Приятный диск, лучший у группы. Длинные треки ближе к концу особенно нравятся.

Всё так. Приобрел себе этот альбом и следующий, так тот вообще ни о чём, а этот очень понравился.


Thanks:
(1) Ghostb,
Go to the top of the page
  Insert nick Quick quote
+Quote Post

Reply to this topicStart new topic
1 User(s) are reading this topic (1 Guests and 0 Anonymous Users)
0 Members:

 



- Lo-Fi Version Support form
Copyrights and abuse reports form
Time is now: 16th February 2020 - 20:59:41