Welcome Guest ( Log In | Register )

> Releases Upload / Добавление релизов

Добавить релиз тут / Click here to add release
Рекомендованные обменники / Recommended file shares

 
Reply to this topicStart new topic
> Brutal Contamination & Extreme Rotten Shit - Another Handjob [split] (2018), Goregrind | Goregrind (D5)(D9)
post Jan 13 2020, 15:15:02
Post #1

Serial Uploader
Group Icon
Group: V.I.P
Posts: 36,839
Releases: 35025
From: Lithuania
On Forums: 11 years 7 months
Thanks: 411519 time(s)
Lithuania


(IMG:https://metalarea.org/images/audiocovers/2020_Jan/acov_tid332591_thumb.jpg)

*Artist: Brutal Contamination & Extreme Rotten Shit
*Album: Another Handjob [split]
*Year: 2018
*Genre: Goregrind | Goregrind
*Country: Brazil (IMG:https://metalarea.org/forum/style_images/flags/Brazil.png) | Brazil (IMG:https://metalarea.org/forum/style_images/flags/Brazil.png)
*Format: mp3@CBR320kbps
*Size: 18MB

Tracklist:
Brutal Contamination:
01. Suppuration Of A Infected Sore 01:21
02. Pulmonary Emphysema 00:51
03. Amputation Of Lower Limbs Due To Generalized Infection 00:52
04. Pilonidal Cist 00:15
Extreme Rotten Shit:
05. Pornstars 01:10
06. LxSxGxAxDxMx 01:23
07. Loló Putrido 00:59
08. Retal Knife 01:01
******************************
Total playing time: 7:52




Technical info
(IMG:https://metalarea.org/images/spectrogram/2020_Jan/9f04ec63a6a2f26176e4513198120298.png)
Input File: 02. Pulmonary emphysema.mp3
Channels : 2
Sample Rate : 44100
Precision : 16-bit
Duration : 00:00:51.33 = 2263785 samples = 3849.97 CDDA sectors
File Size : 2.17M
Bit Rate : 338k
Sample Encoding: MPEG audio (layer I, II or III)
Comments :
Title=2 - Pulmonary emphysema
Artist=Brutal contamination
Album=Another handjob - Split with Extreme rotten shit - 2018
Tracknumber=2
Year=2018



Register


Go to the top of the page
  Insert nick Quick quote
+Quote Post

Reply to this topicStart new topic
1 User(s) are reading this topic (1 Guests and 0 Anonymous Users)
0 Members:

 



- Lo-Fi Version Support form
Copyrights and abuse reports form
Time is now: 23rd January 2020 - 23:48:00