Welcome Guest ( Log In | Register )

 
Reply to this topicStart new topic
> Dead Heart Bleeding - Angels Grief (2003), Gothic/Doom Metal
post Jan 13 2020, 15:32:36
Post #1

...
**************
Group: Металариец
Posts: 3,438
Releases: 1449
From: МЕЩЁРА
On Forums: 12 years 4 months
Thanks: 41839 time(s)
Russian Federation


(IMG:http://metalarea.org/images/audiocovers/2020_Jan/acov_tid332592_thumb.jpg)

*Artist: Dead Heart Bleeding
*Album: Angels Grief
*Year: 2003
*Genre: Gothic/Doom Metal
*Country: Germany (IMG:http://metalarea.org/forum/style_images/flags/Germany.png)
*Format: mp3@CBR320kbps
*Size: 264MB

Tracklist:
01. The Darkening 07:34
02. Sadness 04:26
03. Into The Nameless 06:56
04. Thoughts 05:37
05. Emotions 06:19
06. The Little Heaven 01:53
07. Dreaming Your Grief 09:24
08. Chaotic Seasons 06:18
09. Somewhere Someone Dies 03:35
10. The End... Before It Begins 19:31
******************************
Total playing time: 1:11:33

Extended info
+ Scans.



Technical info
(IMG:http://metalarea.org/images/spectrogram/2020_Jan/e74da21538dc1da445c86d64c86816eb.png)
Input File: 01. The Darkening.mp3
Channels : 2
Sample Rate : 44100
Precision : 16-bit
Duration : 00:07:34.90 = 20061002 samples = 34117.4 CDDA sectors
File Size : 18.2M
Bit Rate : 320k
Sample Encoding: MPEG audio (layer I, II or III)
Comments :
Title=The Darkening
Artist=Dead Heart Bleeding
Album=Angels Grief
Tracknumber=1
Year=2003
Genre=Gothic Doom/Death Metal



Register


Go to the top of the page
  Insert nick Quick quote
+Quote Post

Reply to this topicStart new topic
1 User(s) are reading this topic (1 Guests and 0 Anonymous Users)
0 Members:

 



- Lo-Fi Version Support form
Copyrights and abuse reports form
Time is now: 10th August 2020 - 13:00:55