Welcome Guest ( Log In | Register )

 
Reply to this topicStart new topic
> Brutal Contamination & Vitimas Do Crack - Brutal Contamination/Vitimas Do Crack [split] (2019), Goregrind | Noisecore (D5)(D6)
post Jan 13 2020, 15:39:48
Post #1

Serial Uploader
Group Icon
Group: V.I.P
Posts: 37,287
Releases: 35468
From: Lithuania
On Forums: 12 years 2 months
Thanks: 422693 time(s)
Lithuania


(IMG:https://metalarea.org/images/audiocovers/2020_Jan/acov_tid332593_thumb.jpg)

*Artist: Brutal Contamination & Vitimas Do Crack
*Album: Brutal Contamination/Vitimas Do Crack [split]
*Year: 2019
*Genre: Goregrind | Noisecore
*Country: Brazil (IMG:https://metalarea.org/forum/style_images/flags/Brazil.png) | Brazil (IMG:https://metalarea.org/forum/style_images/flags/Brazil.png)
*Format: mp3@CBR320kbps
*Size: 17MB

Tracklist:
Brutal Contamination:
01. Internal Rotting (Reek Of Death) 01:16
Vitimas Do Crack:
02. Hemorragia Necro Frontal Cefálica Por Altas Dosagens De Sedativo 00:22
Brutal Contamination:
03. Necropsy Addiction 00:55
Vitimas Do Crack:
04. Lavagem Cerebral, Controle Mundial 00:12
Brutal Contamination:
05. Extreme Infection In Genital Cavity 01:16
Vitimas Do Crack:
06. Regurgitation Gorenoise 00:23
Brutal Contamination:
07. Ascelularies Lumprivuidis 00:18
Vitimas Do Crack:
08. 鰻と泥鰌と憐れな肛門 - The Anus Sad To An Eel And A Loach 00:18
Brutal Contamination:
09. Pus Eater II 01:00
Vitimas Do Crack:
10. A Netflix Está Te Transformando Em Um Zumbi 00:18
Brutal Contamination:
11. Post Morten Defecation 01:06
Vitimas Do Crack:
12. Anti-Human 00:07
******************************
Total playing time: 7:31




Technical info
(IMG:https://metalarea.org/images/spectrogram/2020_Jan/c51056689534c79217bf0a564c71ee47.png)
Input File: 03. Necropsy Addiction.mp3
Channels : 2
Sample Rate : 44100
Precision : 16-bit
Duration : 00:00:55.07 = 2428543 samples = 4130.18 CDDA sectors
File Size : 2.27M
Bit Rate : 330k
Sample Encoding: MPEG audio (layer I, II or III)
Comments :
Title=Necropsy Addiction
Artist=Brutal Contamination
Album=Split : Brutal Contamination X Vitimas do Crack
Tracknumber=3
Year=2019



Register


Go to the top of the page
  Insert nick Quick quote
+Quote Post

Reply to this topicStart new topic
1 User(s) are reading this topic (1 Guests and 0 Anonymous Users)
0 Members:

 



- Lo-Fi Version Support form
Copyrights and abuse reports form
Time is now: 10th August 2020 - 12:20:34