Welcome Guest ( Log In | Register )

 
Reply to this topicStart new topic
> Porky & Ocular Leech Infestation - 2 Way Split [split] (2019), Goregrind | Goregrind (D4)(D9)
post Jan 13 2020, 16:16:40
Post #1

Serial Uploader
Group Icon
Group: V.I.P
Posts: 37,287
Releases: 35468
From: Lithuania
On Forums: 12 years 2 months
Thanks: 422693 time(s)
Lithuania


(IMG:https://metalarea.org/images/audiocovers/2020_Jan/acov_tid332594_thumb.jpg)

*Artist: Porky & Ocular Leech Infestation
*Album: 2 Way Split [split]
*Year: 2019
*Genre: Goregrind | Goregrind
*Country: Chile (IMG:https://metalarea.org/forum/style_images/flags/Chile.png) | United States (IMG:https://metalarea.org/forum/style_images/flags/United%20States.png)
*Format: mp3@CBR320kbps
*Size: 39MB

Tracklist:
Porky:
01. Aborten Conchetumare, Dios No Existe 00:09
02. Anti PC, Anti Homofobia 01:03
03. De Que Te Sirve Tocar Grindcore Si Piensas Como Vieja Culia 00:05
04. Visceras Colgando De La Tula 00:12
05. Despostada Afuera De Su Propia Casa 00:55
06. Einal Penetreichon Of The Dead 00:02
07. El Mejor Anticonceptivo Es Ser Fan De Metallica 00:02
08. El Unico Trabajo De Un Soldado Es Morirse (Y Lo Hacen Mal) 00:10
09. Fin De Semana Termina Con Familia De 5 Aplastados Por Un Camion En La Carretera 00:40
10. Funeral Tibetano 00:04
11. Necrofilia En La Morgue 00:02
12. Cadaver Trozado En Oferta En El Super 01:03
13. Boing Boing Boeing (Los Aviones No Rebotan) 00:01
14. No Bb, No Eres Carnicero Por Escuchar Death Metal, Solo Te Gusta Llamar La Atencion 00:12
15. Adolescente Muere Calcinado En Incendio Escolar 00:02
16. Podrido En La Orilla Del Mapocho 00:04
17. Soi Tru 00:09
18. Tapon De Moco 00:08
19. Tener Auto No Sirve De Nada Si Lo Chocas Y Te Mueres 00:01
20. Todos Muertos En El Invierno Nuclear 00:08
Ocular Leech Infestation:
21. Asphyxiation By Fabric Softener Past Its Expiration Date 00:38
22. Emptying Shotgun Shells Into The Kraanium Of Your Honor Student 00:50
23. Uterovaginal Television 01:08
24. Shut Crushed 00:10
25. Peyton Manning's Forehead Is A Secret Naval Base 00:59
26. Entrails Seeping Through Grandma's Old Wedding Gown 00:54
27. Piss Pig 00:31
28. Hospitalization Through Diet Coke Overdose 01:07
29. What The Fuck Kind Of Name Is Ernesto 00:17
30. Call Me, Ladies (704) 900-9361 01:02
31. Isolated Felching At Summer Camp 00:14
32. I Erectrocuted Your Sister Last Tuesday And I'm Definitely Not Chinese 01:10
******************************
Total playing time: 14:12




(IMG:https://metalarea.org/images/youtube.png)

Technical info
(IMG:https://metalarea.org/images/spectrogram/2020_Jan/e2857d1006577c20945b5168364dce2b.png)
Input File: 02. Anti PC, anti homofobia.mp3
Channels : 2
Sample Rate : 44100
Precision : 16-bit
Duration : 00:01:03.12 = 2783372 samples = 4733.63 CDDA sectors
File Size : 2.73M
Bit Rate : 347k
Sample Encoding: MPEG audio (layer I, II or III)
Comments :
Title=Anti PC, anti homofobia
Artist=Porky
Album=Porky/Ocular Leech Infestation 2 Way Split
Tracknumber=2
Year=2019



Register


Go to the top of the page
  Insert nick Quick quote
+Quote Post

Reply to this topicStart new topic
1 User(s) are reading this topic (1 Guests and 0 Anonymous Users)
0 Members:

 



- Lo-Fi Version Support form
Copyrights and abuse reports form
Time is now: 10th August 2020 - 11:32:53