Welcome Guest ( Log In | Register )

 
Reply to this topicStart new topic
> Porky & Days Of Hate - Porky/Days Of Hate [split] (2019), Goregrind | Grindcore (D4)
post Jan 13 2020, 16:32:25
Post #1

Serial Uploader
Group Icon
Group: V.I.P
Posts: 37,287
Releases: 35468
From: Lithuania
On Forums: 12 years 2 months
Thanks: 422693 time(s)
Lithuania


(IMG:https://metalarea.org/images/audiocovers/2020_Jan/acov_tid332595_thumb.jpg)

*Artist: Porky & Days Of Hate
*Album: Porky/Days Of Hate [split]
*Year: 2019
*Genre: Goregrind | Grindcore
*Country: Chile (IMG:https://metalarea.org/forum/style_images/flags/Chile.png) | Brazil (IMG:https://metalarea.org/forum/style_images/flags/Brazil.png)
*Format: mp3@CBR320kbps
*Size: 10MB

Tracklist:
Porky:
01. Autopsia Séptica 01:08
02. Destapando El Water Con Un Gato Muerto 00:05
03. Sorbeteando Pus De Un Quiste A Medio Podrir 00:29
Days Of Hate:
04. Heróis Do Vitimismo 00:10
05. Massa De Manobra 00:05
06. Falso Moralismo 00:03
07. Paralisia Intelectual 00:11
08. Caga-Regras 00:19
09. Pessimismo Logico 00:07
10. Falácia Meritocrata 00:04
11. Cercado De Incompetentes 00:22
12. Corrupção Ambidestra 00:06
13. Romantização Da Filhadaputagem 00:22
******************************
Total playing time: 3:31




(IMG:https://metalarea.org/images/youtube.png)

Technical info
(IMG:https://metalarea.org/images/spectrogram/2020_Jan/32561678493e9526adec06e181ed9073.png)
Input File: 02. Destapando el water con un gato muerto.mp3
Channels : 2
Sample Rate : 44100
Precision : 16-bit
Duration : 00:00:05.69 = 251105 samples = 427.049 CDDA sectors
File Size : 409k
Bit Rate : 575k
Sample Encoding: MPEG audio (layer I, II or III)
Comments :
Title=Destapando el water con un gato muerto
Artist=Porky
Album=Split with Days of Hate
Tracknumber=2
Year=2019



Register


Go to the top of the page
  Insert nick Quick quote
+Quote Post

Reply to this topicStart new topic
1 User(s) are reading this topic (1 Guests and 0 Anonymous Users)
0 Members:

 



- Lo-Fi Version Support form
Copyrights and abuse reports form
Time is now: 10th August 2020 - 12:25:12