Welcome Guest ( Log In | Register )

> Porky & Chikara - Porky/Chikara [split] (2018), Goregrind | Hardcore/Crust (D4)(D5)
post Jan 13 2020, 16:48:15
Post #1

Serial Uploader
Group Icon
Group: V.I.P
Posts: 37,287
Releases: 35468
From: Lithuania
On Forums: 12 years 2 months
Thanks: 422693 time(s)
Lithuania


(IMG:https://metalarea.org/images/audiocovers/2020_Jan/acov_tid332596_thumb.jpg)

*Artist: Porky & Chikara
*Album: Porky/Chikara [split]
*Year: 2018
*Genre: Goregrind | Hardcore/Crust
*Country: Chile (IMG:https://metalarea.org/forum/style_images/flags/Chile.png) | Sweden (IMG:https://metalarea.org/forum/style_images/flags/Sweden.png)
*Format: mp3@CBR320kbps
*Size: 23MB

Tracklist:
Porky:
01. Chancho Vengador 00:56
02. El Cadaver Del Perro De La Casa Fue Abusado Por El Veterinario Que Lo Puso A Dormir 01:18
03. Grinder Facho (Hay Que Ser Bien Aweonao Para Creese Nazi Y Andar Con Poleras De Napalm Death) 01:05
04. Orgía De Cancerosos (Los Terminales Tambien Quieren Cachita) 00:59
05. Asfixiando Guaguas En La Sala De Maternidad 00:39
Chikara:
06. Burning Hate 01:10
07. All For One 02:22
08. Ways Of War 01:26
******************************
Total playing time: 9:55




(IMG:https://metalarea.org/images/youtube.png)

Technical info
(IMG:https://metalarea.org/images/spectrogram/2020_Jan/6c1d2e52070213f1e1a6cc1bb00ccddd.png)
Input File: 02. El Cadaver del Perro de la Casa Fue Abusado por el Veterinario que lo Puso a Dormir.mp3
Channels : 2
Sample Rate : 44100
Precision : 16-bit
Duration : 00:01:18.48 = 3460792 samples = 5885.7 CDDA sectors
File Size : 3.27M
Bit Rate : 333k
Sample Encoding: MPEG audio (layer I, II or III)
Comments :
Title=El Cadaver del Perro de la Casa Fue Abusado por el Veterinario que lo Puso a Dormir
Artist=Porky
Album=Split With Chikara
Tracknumber=2
Year=2018



Register


Go to the top of the page
  Insert nick Quick quote
+Quote Post
 
Start new topic
Replies (1 - 1)
post Jan 25 2020, 02:15:35
Post #2

Русский
*****
Group: Металариец
Posts: 418
Releases: 0
From: Москва
On Forums: 13 years 11 months
Thanks: 178 time(s)
Russian Federation


неплохо (IMG:style_emoticons/default/20.gif)
Go to the top of the page
  Insert nick Quick quote
+Quote Post

Reply to this topicStart new topic
1 User(s) are reading this topic (1 Guests and 0 Anonymous Users)
0 Members:

 



- Lo-Fi Version Support form
Copyrights and abuse reports form
Time is now: 10th August 2020 - 11:45:07