Welcome Guest ( Log In | Register )

> Releases Upload / Добавление релизов

Добавить релиз тут / Click here to add release
Рекомендованные обменники / Recommended file shares

 
Reply to this topicStart new topic
> Illarith - The Great Mortality [ep] (2020), Depressive Black Metal, Ambient
post Jan 13 2020, 17:23:41
Post #1

Каждое ваше "Спасибо" помогает мне понять, что я делаю новости не напрасно.
**************
Group: Металариец
Posts: 2,341
Releases: 2067
From: Одесса
On Forums: 11 years 8 months
Thanks: 18837 time(s)
Ukraine


(IMG:http://metalarea.org/images/audiocovers/2020_Jan/acov_tid332597_thumb.jpg)

*Artist: Illarith
*Album: The Great Mortality [ep]
*Year: 2020
*Genre: Depressive Black Metal, Ambient
*Country: United States (IMG:http://metalarea.org/forum/style_images/flags/United%20States.png)
*Format: mp3@CBR320kbps
*Size: 35MB

Tracklist:
1.Shadowplay / Yersinia Pestis 05:12
2.Aartsdiakonaat Kempenland 04:56
3.Die große Sterblichkeit 04:42
******************************
Total playing time: 14:50



Extended info
Line - up:

Näcken - Everything


Technical info
(IMG:http://metalarea.org/images/spectrogram/2020_Jan/f010e42ab081aa813b8589f0ad156896.png)
Input File: 01. Shadowplay Yersinia Pestis.mp3
Channels : 2
Sample Rate : 44100
Precision : 16-bit
Duration : 00:05:12.08 = 13762684 samples = 23405.9 CDDA sectors
File Size : 12.5M
Bit Rate : 320k
Sample Encoding: MPEG audio (layer I, II or III)
Comments :
Title=Shadowplay / Yersinia Pestis
Artist=Illarith
Album=The Great Mortality (EP)
Tracknumber=1
Year=2020
Genre=Depressive Black Metal, Ambient



Register


Go to the top of the page
  Insert nick Quick quote
+Quote Post

Reply to this topicStart new topic
1 User(s) are reading this topic (1 Guests and 0 Anonymous Users)
0 Members:

 



- Lo-Fi Version Support form
Copyrights and abuse reports form
Time is now: 21st February 2020 - 01:52:51