Welcome Guest ( Log In | Register )

> Sandarmoh - Sandarmoh (2019), Melodic Death/Black Metal
post Jan 13 2020, 18:25:57
Post #1

Правь статус, ####!111
**************
Group: Металариец
Posts: 22,665
Releases: 15760
From: Г.Харьков
On Forums: 8 years 3 months
Thanks: 290225 time(s)
Unknown


(IMG:http://metalarea.org/images/audiocovers/2020_Jan/acov_tid332599_thumb.jpg)

*Artist: Sandarmoh
*Album: Sandarmoh
*Year: 2019
*Genre: Melodic Death/Black Metal
*Country: Russian Federation (IMG:http://metalarea.org/forum/style_images/flags/Russian%20Federation.png)
*Format: mp3@CBR320kbps
*Size: 95MB

Tracklist:
1. The Raid 04:18
2. Beginning of Times 04:07
3. IIXIIXIV 04:03
4. Chaos Rising 03:45
5. Execute Them All 05:36
6. Drowned 02:24
7. Illusion of Time 03:31
8. Final War 04:16
9. Dimension Beyond 04:09
10. Existence to Extinction 04:54
******************************
Total playing time: 41:03


Preview 2

Extended info
Vladimir Savvateev Bass (2019-present)
See also: Antimelodix, Örk Bastards, СатанаКозёл, ex-AID, ex-Minuala
Dmitry Porshnev Drums (2019-present)
Boris Rodionov Guitars (2019-present)
V. Vocals (2019-present)
See also: Is, Örk Bastards, Skogsande


Technical info
(IMG:http://metalarea.org/images/spectrogram/2020_Jan/db1b8945f04728b62cc90529ca67d174.png)
Input File: 02 - Beginning of Times.mp3
Channels : 2
Sample Rate : 44100
Precision : 16-bit
Duration : 00:04:07.58 = 10918234 samples = 18568.4 CDDA sectors
File Size : 10.0M
Bit Rate : 324k
Sample Encoding: MPEG audio (layer I, II or III)
Comments :
Title=Beginning of Times
Artist=Sandarmoh
Album=Sandarmoh
Tracknumber=2
Year=2020-01-11
Genre=Metal
Discnumber=1



Register


Go to the top of the page
  Insert nick Quick quote
+Quote Post
 
Start new topic
Replies (1 - 1)
post Jan 18 2020, 15:04:57
Post #2

Ъ
**************
Group: Металариец
Posts: 10,177
Releases: 9
On Forums: 11 years 7 months
Thanks: 2051 time(s)
Sweden


Третьесорт, на раз норм.
Go to the top of the page
  Insert nick Quick quote
+Quote Post

Reply to this topicStart new topic
1 User(s) are reading this topic (1 Guests and 0 Anonymous Users)
0 Members:

 



- Lo-Fi Version Support form
Copyrights and abuse reports form
Time is now: 10th August 2020 - 12:46:44