Welcome Guest ( Log In | Register )

> Releases Upload / Добавление релизов

Добавить релиз тут / Click here to add release
Рекомендованные обменники / Recommended file shares

> Astral Cult - Boaz (2018), Stoner/Doom Metal
post Jan 13 2020, 18:37:20
Post #1

Семь Литров
*******
Group: Металариец
Posts: 703
Releases: 82
On Forums: 11 years 2 months
Thanks: 1568 time(s)
Russian Federation


(IMG:http://metalarea.org/images/audiocovers/2020_Jan/acov_tid332600_thumb.jpg)

*Artist: Astral Cult
*Album: Boaz
*Year: 2018
*Genre: Stoner/Doom Metal
*Country: United States (IMG:http://metalarea.org/forum/style_images/flags/United%20States.png)
*Format: mp3@CBR320kbps
*Size: 80MB

Tracklist:
01. Octinomous 07:09
02. Mayim 02:24
03. Invocation of Ra-Horakhty 12:53
04. Cheth 03:10
05. Parthenogenesis 09:11
******************************
Total playing time: 34:47


Preview 2

Extended info
Lineup;
Alexandre Lapuh: Dream Enchanter
Nathan Priester: Guitar Master
Stefan Henskens: Bass Wizard
Adam Moore: Drum Monster

(IMG:http://i98.fastpic.ru/big/2018/1102/f5/9b4b0199ebe4975739c3330585b7eef5.jpg)


Technical info
(IMG:http://metalarea.org/images/spectrogram/2020_Jan/9194c38169da76cdc0b4aa2ecc4f0adb.png)
Input File: 01-Octinomous.mp3
Channels : 2
Sample Rate : 44100
Precision : 16-bit
Duration : 00:07:09.92 = 18959648 samples = 32244.3 CDDA sectors
File Size : 17.2M
Bit Rate : 320k
Sample Encoding: MPEG audio (layer I, II or III)
Comments :
Title=Octinomous
Artist=Astral Cult
Album=Boaz
Tracknumber=01
Year=2018
Genre=Stoner/Doom Metal



Register


Go to the top of the page
  Insert nick Quick quote
+Quote Post
 
Start new topic
Replies (1 - 1)
post Jan 13 2020, 21:13:25
Post #2

Семь Литров
*******
Group: Металариец
Posts: 703
Releases: 82
On Forums: 11 years 2 months
Thanks: 1568 time(s)
Russian Federation


FLAC tracks:
Register


Thanks:
Go to the top of the page
  Insert nick Quick quote
+Quote Post

Reply to this topicStart new topic
2 User(s) are reading this topic (2 Guests and 0 Anonymous Users)
0 Members:

 



- Lo-Fi Version Support form
Copyrights and abuse reports form
Time is now: 23rd January 2020 - 04:27:13