Welcome Guest ( Log In | Register )

> Releases Upload / Добавление релизов

Добавить релиз тут / Click here to add release
Рекомендованные обменники / Recommended file shares

 
Reply to this topicStart new topic
> Channel The Animal - Death Of The Dream (2020), Progressive/Death/Thrash Metal
post Jan 13 2020, 19:07:15
Post #1

Правь статус, ####!111
**************
Group: Металариец
Posts: 20,313
Releases: 13846
From: Г.Харьков
On Forums: 7 years 8 months
Thanks: 242307 time(s)
Unknown


(IMG:http://metalarea.org/images/audiocovers/2020_Jan/acov_tid332602_thumb.jpg)

*Artist: Channel The Animal
*Album: Death Of The Dream
*Year: 2020
*Genre: Progressive/Death/Thrash Metal
*Country: United States (IMG:http://metalarea.org/forum/style_images/flags/United%20States.png)
*Format: mp3@CBR320kbps
*Size: 106MB

Tracklist:
1. Contradictory Condescension 01:19
2. Foxhunt 04:35
3. Momentum 04:26
4. Check the Color of Your Collar 04:47
5. Time-Flies 01:26
6. Lifting Weights 05:20 instrumental
7. QLC 03:25
8. Forsaken 06:00
9. Sinuous Slumber 05:18
10. Early Afternoon 03:11
11. Hope! 05:42
******************************
Total playing time: 45:29




Extended info
Todd Seibert All instruments, Vocals (2014-present)


Technical info
(IMG:http://metalarea.org/images/spectrogram/2020_Jan/6360dbdee1f96fa4143ac62577e2b7d7.png)
Input File: Channel the Animal - Death of the Dream - 03 Momentum.mp3
Channels : 2
Sample Rate : 44100
Precision : 16-bit
Duration : 00:04:26.33 = 11745285 samples = 19975 CDDA sectors
File Size : 10.8M
Bit Rate : 325k
Sample Encoding: MPEG audio (layer I, II or III)
Comments :
Title=Momentum
Artist=Channel the Animal
Album=Death of the Dream
Tracknumber=3
Year=2020



Register


Go to the top of the page
  Insert nick Quick quote
+Quote Post

Reply to this topicStart new topic
1 User(s) are reading this topic (1 Guests and 0 Anonymous Users)
0 Members:

 



- Lo-Fi Version Support form
Copyrights and abuse reports form
Time is now: 24th January 2020 - 00:18:56