Welcome Guest ( Log In | Register )

> Releases Upload / Добавление релизов

Добавить релиз тут / Click here to add release
Рекомендованные обменники / Recommended file shares

> The Fërtility Cült - Kosmodysseia (2019), Psychedelic/Stoner Doom Metal
post Jan 13 2020, 20:00:35
Post #1

Правь статус, ####!111
**************
Group: Металариец
Posts: 44,928
Releases: 694
On Forums: 10 years 7 months
Thanks: 36434 time(s)
Russian Federation


(IMG:http://metalarea.org/images/audiocovers/2020_Jan/acov_tid332603_thumb.jpg)

*Artist: The Fërtility Cült
*Album: Kosmodysseia
*Year: 2019
*Genre: Psychedelic/Stoner Doom Metal
*Country: Finland (IMG:http://metalarea.org/forum/style_images/flags/Finland.png)
*Format: mp3@CBR320kbps
*Size: 112MB

Tracklist:
1. Kosmodysseia part I: The Planeswalker 07:27
2. Return to the Desert Planet 07:50
3. Star Siren's Song 06:55
4. Visions of Home 01:48
5. Hunters of Galactic Daemons 04:23
6. Kosmodysseia part II: Timeless Ithaca 08:03
7. The Queen of Spacetime 10:23
******************************
Total playing time: 46:49



Technical info
(IMG:http://metalarea.org/images/spectrogram/2020_Jan/aa638ee9cf8a17e8d03b73d9fcb06799.png)
Input File: The Fërtility Cült - Kosmodysseia - 01 Kosmodysseia part I- The Planeswalker.mp3
Channels : 2
Sample Rate : 44100
Precision : 16-bit
Duration : 00:07:27.08 = 19716404 samples = 33531.3 CDDA sectors
File Size : 18.1M
Bit Rate : 323k
Sample Encoding: MPEG audio (layer I, II or III)
Comments :
Title=Kosmodysseia part I: The Planeswalker
Artist=The Fërtility Cült
Album=Kosmodysseia
Tracknumber=1
Year=2019



Register


Go to the top of the page
  Insert nick Quick quote
+Quote Post
 
Start new topic
Replies (1 - 1)
post Jan 13 2020, 21:04:54
Post #2

Правь статус, ####!111
**************
Group: Металариец
Posts: 4,430
Releases: 0
From: Одесса
On Forums: 11 years 10 months
Thanks: 2851 time(s)
Unknown


Good for ya and your sistah
Go to the top of the page
  Insert nick Quick quote
+Quote Post

Reply to this topicStart new topic
1 User(s) are reading this topic (1 Guests and 0 Anonymous Users)
0 Members:

 



- Lo-Fi Version Support form
Copyrights and abuse reports form
Time is now: 23rd January 2020 - 23:31:59