Welcome Guest ( Log In | Register )

> Releases Upload / Добавление релизов

Добавить релиз тут / Click here to add release
Рекомендованные обменники / Recommended file shares

> Yoth Iria - Under His Sway [ep] (2020), Black Metal
post Jan 13 2020, 20:14:05
Post #1

Detective Godzilla
Group Icon
Group: Moderation team
Posts: 3,290
Releases: 283
On Forums: 8 years 11 months
Thanks: 10126 time(s)
Russian Federation


(IMG:https://metalarea.org/images/audiocovers/2020_Jan/acov_tid332604_thumb.jpg)

*Artist: Yoth Iria
*Album: Under His Sway [ep]
*Year: 2020
*Genre: Black Metal
*Country: Greece (IMG:https://metalarea.org/forum/style_images/flags/Greece.png)
*Format: mp3@CBR320kbps
*Size: 40MB

Tracklist:
01. Under His Sway 06:10
02. Sid Ed Djinn 06:50
03. Visions of The Dead Lovers (Rotting Christ cover) 04:18
******************************
Total playing time: 17:18



Extended info
Personal purcahse


Technical info
(IMG:https://metalarea.org/images/spectrogram/2020_Jan/371b141a8d3483c8d17231b9b272ea7d.png)
Input File: Yoth_Iria - Under His Sway - 02 Sid Ed Djinn.mp3
Channels : 2
Sample Rate : 44100
Precision : 16-bit
Duration : 00:06:50.38 = 18097758 samples = 30778.5 CDDA sectors
File Size : 16.5M
Bit Rate : 321k
Sample Encoding: MPEG audio (layer I, II or III)
Comments :
Title=Sid Ed Djinn
Artist=Yoth Iria
Album=Under His Sway
Tracknumber=2
Year=2020



Register


Go to the top of the page
  Insert nick Quick quote
+Quote Post
 
Start new topic
Replies (1 - 6)
post Jan 14 2020, 04:38:50
Post #2

Литр
*
Group: Подсевший
Posts: 97
Releases: 0
On Forums: 2 years 8 months
Thanks: 61 time(s)
Zimbabwe


ex-Rotting Christ members
Go to the top of the page
  Insert nick Quick quote
+Quote Post
post Jan 14 2020, 16:07:48
Post #3

Group: Подсевший
Posts: 12
Releases: 0
On Forums: 10 years 5 months
Thanks: 4 time(s)
Unknown


Есть у кого FLAC? Уж больно классно сыграли. Окунулся в атмосферу 90-х. Вспомнил дух греческой школы тех времен.
Go to the top of the page
  Insert nick Quick quote
+Quote Post
post Jan 14 2020, 23:25:42
Post #4

Два Литра
**
Group: Завсегдатай
Posts: 124
Releases: 0
On Forums: 2 years 8 months
Thanks: 27 time(s)
Albania


Выше всяких похвал! Ждем-с новый Medieval Demon теперь.


Thanks:
Go to the top of the page
  Insert nick Quick quote
+Quote Post
post Jan 14 2020, 23:54:13
Post #5

Detective Godzilla
Group Icon
Group: Moderation team
Posts: 3,290
Releases: 283
On Forums: 8 years 11 months
Thanks: 10126 time(s)
Russian Federation


Piob, Ну, у меня есть, например. Позже залью.
Go to the top of the page
  Insert nick Quick quote
+Quote Post
post Jan 16 2020, 14:53:05
Post #6

Четыре Литра
****
Group: Металариец
Posts: 318
Releases: 37
From: Московская обл.
On Forums: 12 years 5 months
Thanks: 541 time(s)
Russian Federation


В тройке лучших релизов последних лет вместе с Disharmony - Messe De Minuit, и Cultes Des Ghoules - Sinister...

Ждём-с прощальный Ep Necromantia теперь.


Thanks:
(1) Beazth,
Go to the top of the page
  Insert nick Quick quote
+Quote Post
post Jan 18 2020, 16:33:52
Post #7

Пять Литров
*****
Group: Металариец
Posts: 404
Releases: 1
On Forums: 7 years 6 months
Thanks: 179 time(s)
South Korea


Есть другой файлообменник?
Go to the top of the page
  Insert nick Quick quote
+Quote Post

Reply to this topicStart new topic
2 User(s) are reading this topic (2 Guests and 0 Anonymous Users)
0 Members:

 



- Lo-Fi Version Support form
Copyrights and abuse reports form
Time is now: 23rd January 2020 - 02:36:03