Welcome Guest ( Log In | Register )

 
Reply to this topicStart new topic
> Nympha & Antiquus Scriptum & Faethon - Triunvirato [split] (2019), Doom/Gothic Metal | Black/Viking Metal, Ambient | Black Metal (D)(D)
post Jan 13 2020, 20:17:31
Post #1

Каждое ваше "Спасибо" помогает мне понять, что я делаю новости не напрасно.
**************
Group: Металариец
Posts: 2,269
Releases: 2001
From: Одесса
On Forums: 11 years 7 months
Thanks: 17841 time(s)
Ukraine


(IMG:http://metalarea.org/images/audiocovers/2020_Jan/acov_tid332605_thumb.jpg)

*Artist: Nympha & Antiquus Scriptum & Faethon
*Album: Triunvirato [split]
*Year: 2019
*Genre: Doom/Gothic Metal | Black/Viking Metal, Ambient | Black Metal
*Country: Portugal (IMG:http://metalarea.org/forum/style_images/flags/Portugal.png) | Portugal (IMG:http://metalarea.org/forum/style_images/flags/Portugal.png) | Greece (IMG:http://metalarea.org/forum/style_images/flags/Greece.png)
*Format: mp3@CBR320kbps
*Size: 157MB

Tracklist:
Nympha:
1.Preludium 02:27
2.Embracing the Night 07:26
3.Summer Unborn 06:18
4.Grief 05:09
Antiquus Scriptum:
5.Fleurs du Mal - Initium 01:24
6.Bula ad Extirpenda (Innocentio IVth, MCCLII - The Saint Office of Inquisition of Faith) 08:58
7.In Pulverem Reverteris 01:57
8.A Nightside of Eden - Finalis 04:54
Faethon:
9.Hymn to Apollo 04:00
10.Pan, Lord of the Woods 05:18
11.Ultima Thule 03:43
12....of Ancient Mountains and Enchanting Forests 03:39
13.Hordes of Zeus 07:43
14.Ancestral Wisdom 03:58
******************************
Total playing time: 1:06:54



Extended info
В ЛОУ


Technical info
(IMG:http://metalarea.org/images/spectrogram/2020_Jan/31e4bdeb97543ad73252f5dc909b4681.png)
Input File: 13. Faethon - Hordes Of Zeus.mp3
Channels : 2
Sample Rate : 44100
Precision : 16-bit
Duration : 00:07:50.01 = 20727265 samples = 35250.5 CDDA sectors
File Size : 18.8M
Bit Rate : 320k
Sample Encoding: MPEG audio (layer I, II or III)
Comments :
Title=Hordes Of Zeus
Artist=Faethon
Album=Triunvirato (Split)
Tracknumber=13
Year=2019
Genre=138



Register


Go to the top of the page
  Insert nick Quick quote
+Quote Post

Reply to this topicStart new topic
1 User(s) are reading this topic (1 Guests and 0 Anonymous Users)
0 Members:

 



- Lo-Fi Version Support form
Copyrights and abuse reports form
Time is now: 23rd January 2020 - 23:32:09