Welcome Guest ( Log In | Register )

> Releases Upload / Добавление релизов

Добавить релиз тут / Click here to add release
Рекомендованные обменники / Recommended file shares

> Loserfur - Born Pissed (2020), Stoner/Doom Metal
post Jan 13 2020, 20:21:11
Post #1

Правь статус, ####!111
**************
Group: Металариец
Posts: 44,929
Releases: 694
On Forums: 10 years 7 months
Thanks: 36434 time(s)
Russian Federation


(IMG:http://metalarea.org/images/audiocovers/2020_Jan/acov_tid332606_thumb.jpg)

*Artist: Loserfur
*Album: Born Pissed
*Year: 2020
*Genre: Stoner/Doom Metal
*Country: United States (IMG:http://metalarea.org/forum/style_images/flags/United%20States.png)
*Format: mp3@CBR320kbps
*Size: 67MB

Tracklist:
1. White Horse 04:16
2. To Be Gutted 04:04
3. The Shit That Killed Elvis 03:33
4. Satan's Throne Room 06:46
5. Fugal Worship 04:44
6. Fuck Y'all 02:03
7. Black Horse 02:37
******************************
Total playing time: 28:03



Technical info
(IMG:http://metalarea.org/images/spectrogram/2020_Jan/39135b7894431d8675cba0b0f36d0f41.png)
Input File: Loserfur - Born Pissed - 01 White Horse.mp3
Channels : 2
Sample Rate : 44100
Precision : 16-bit
Duration : 00:04:16.72 = 11321308 samples = 19253.9 CDDA sectors
File Size : 10.4M
Bit Rate : 324k
Sample Encoding: MPEG audio (layer I, II or III)
Comments :
Title=White Horse
Artist=Loserfur
Album=Born Pissed
Tracknumber=1
Year=2020



Register


Go to the top of the page
  Insert nick Quick quote
+Quote Post
 
Start new topic
Replies (1 - 2)
post Jan 14 2020, 11:10:41
Post #2

Правь статус, ####!111
**************
Group: Металариец
Posts: 44,929
Releases: 694
On Forums: 10 years 7 months
Thanks: 36434 time(s)
Russian Federation


Ничего сверхординарного но сыро и сытные рокенрольные солячки в жилу.
Go to the top of the page
  Insert nick Quick quote
+Quote Post
post Jan 19 2020, 10:02:54
Post #3

Group: Подсевший
Posts: 14
Releases: 0
From: Voronezh
On Forums: 10 years 2 months
Thanks: 1 time(s)
Russian Federation


Солячки действительно хороши
Go to the top of the page
  Insert nick Quick quote
+Quote Post

Reply to this topicStart new topic
1 User(s) are reading this topic (1 Guests and 0 Anonymous Users)
0 Members:

 



- Lo-Fi Version Support form
Copyrights and abuse reports form
Time is now: 24th January 2020 - 00:51:15