Welcome Guest ( Log In | Register )

> Releases Upload / Добавление релизов

Добавить релиз тут / Click here to add release
Рекомендованные обменники / Recommended file shares

> Furan - Livets Endestasjon (2020), Black Metal
post Jan 13 2020, 20:28:36
Post #1

Семь Литров
*******
Group: Металариец
Posts: 703
Releases: 82
On Forums: 11 years 2 months
Thanks: 1568 time(s)
Russian Federation


(IMG:http://metalarea.org/images/audiocovers/2020_Jan/acov_tid332607_thumb.jpg)

*Artist: Furan
*Album: Livets Endestasjon
*Year: 2020
*Genre: Black Metal
*Country: Norway (IMG:http://metalarea.org/forum/style_images/flags/Norway.png)
*Format: mp3@CBR320kbps
*Size: 80MB

Tracklist:
01. Siste reis 00:59
02. Livets endestasjon 05:28
03. Innvendigt kaos 06:59
04. I mitt sinn gir eg blanke 03:29
05. Fra evighet, te evighet 04:12
06. Vold, drap og blod 04:26
07. Skyttargravas mareritt, seierherrens ondskap 04:06
08. Dødsmarsjen 04:54
******************************
Total playing time: 34:33



Extended info


Lineup:
Hekkans Soldat (Everything)


Technical info
(IMG:http://metalarea.org/images/spectrogram/2020_Jan/ec9db598f870627ba20cb7fc843142d0.png)
Input File: 02-Livets endestasjon.mp3
Channels : 2
Sample Rate : 44100
Precision : 16-bit
Duration : 00:05:28.49 = 14486189 samples = 24636.4 CDDA sectors
File Size : 13.1M
Bit Rate : 320k
Sample Encoding: MPEG audio (layer I, II or III)
Comments :
Title=Livets endestasjon
Artist=Furan
Album=Livets endestasjon
Tracknumber=2
Year=2020
Genre=Black Metal



Register


Go to the top of the page
  Insert nick Quick quote
+Quote Post
 
Start new topic
Replies (1 - 5)
post Jan 13 2020, 21:14:07
Post #2

Семь Литров
*******
Group: Металариец
Posts: 703
Releases: 82
On Forums: 11 years 2 months
Thanks: 1568 time(s)
Russian Federation


FLAC tracks:
Register


Go to the top of the page
  Insert nick Quick quote
+Quote Post
post Jan 13 2020, 21:52:31
Post #3

Правь статус, ####!111
**************
Group: Металариец
Posts: 4,429
Releases: 0
From: Одесса
On Forums: 11 years 10 months
Thanks: 2849 time(s)
Unknown


(IMG:https://f4.bcbits.com/img/0017456524_10.jpg)


Thanks:
(1) biroutios,
Go to the top of the page
  Insert nick Quick quote
+Quote Post
post Jan 14 2020, 09:34:04
Post #4

Правь статус, ####!111
**************
Group: Металариец
Posts: 2,813
Releases: 8
From: Dnipro
On Forums: 11 years 6 months
Thanks: 891 time(s)
Ukraine


Норвежская народная хоровая клубно-сельская самодеятельность.


Thanks:
Go to the top of the page
  Insert nick Quick quote
+Quote Post
post Jan 14 2020, 10:22:31
Post #5

Правь статус, ####!111
**************
Group: Металариец
Posts: 44,908
Releases: 694
On Forums: 10 years 7 months
Thanks: 36422 time(s)
Russian Federation


ЦИТАТА(isvili @ Jan 14 2020, 11:34:04) *
Норвежская народная хоровая клубно-сельская самодеятельность.


Пукан (IMG:style_emoticons/default/25.gif)
Go to the top of the page
  Insert nick Quick quote
+Quote Post
post Jan 14 2020, 16:57:07
Post #6

Восемь Литров
********
Group: Металариец
Posts: 872
Releases: 0
From: Новосибирск
On Forums: 10 years 4 months
Thanks: 243 time(s)
Russian Federation


Как же Варг сильно им завидует (IMG:style_emoticons/default/1488.gif)
Go to the top of the page
  Insert nick Quick quote
+Quote Post

Reply to this topicStart new topic
2 User(s) are reading this topic (2 Guests and 0 Anonymous Users)
0 Members:

 



- Lo-Fi Version Support form
Copyrights and abuse reports form
Time is now: 23rd January 2020 - 04:05:17