Welcome Guest ( Log In | Register )

 
Reply to this topicStart new topic
> Waldhexen - Ego Canus Lunam Cano [ep] (2020), Death/Black Metal
post Jan 13 2020, 20:32:08
Post #1

MDM-Thrash Metal
**************
Group: Металариец
Posts: 9,706
Releases: 959
From: Одесса
On Forums: 13 years 20 hours
Thanks: 24491 time(s)
Ukraine


(IMG:http://metalarea.org/images/audiocovers/2020_Jan/acov_tid332608_thumb.jpg)

*Artist: Waldhexen
*Album: Ego Canus Lunam Cano [ep]
*Year: 2020
*Genre: Death/Black Metal
*Country: United States (IMG:http://metalarea.org/forum/style_images/flags/United%20States.png)
*Format: mp3@CBR320kbps
*Size: 27MB

Tracklist:
1. The Oblation of One for Many 05:40
2. The Keys to Allocer's Mysteries 03:20
3. Quasi-Dimensional Phantoms of Undistinguished Chromacity 02:52
******************************
Total playing time: 11:52



Technical info
(IMG:http://metalarea.org/images/spectrogram/2020_Jan/31b79a6aeeb4a365f08fbffe9948c579.png)
Input File: Waldhexen - EGO CANUS LUNAM CANO - 01 The Oblation of One for Many.mp3
Channels : 2
Sample Rate : 44100
Precision : 16-bit
Duration : 00:05:40.73 = 15026325 samples = 25555 CDDA sectors
File Size : 13.8M
Bit Rate : 323k
Sample Encoding: MPEG audio (layer I, II or III)
Comments :
Title=The Oblation of One for Many
Artist=Waldhexen
Album=EGO CANUS LUNAM CANO
Tracknumber=1
Year=2020



Register


Go to the top of the page
  Insert nick Quick quote
+Quote Post

Reply to this topicStart new topic
1 User(s) are reading this topic (1 Guests and 0 Anonymous Users)
0 Members:

 



- Lo-Fi Version Support form
Copyrights and abuse reports form
Time is now: 10th August 2020 - 12:56:56