Welcome Guest ( Log In | Register )

> Releases Upload / Добавление релизов

Добавить релиз тут / Click here to add release
Рекомендованные обменники / Recommended file shares

> Raper - You Will Die (2017), Thrash Metal
post Jan 13 2020, 20:38:34
Post #1

Правь статус, ####!111
**************
Group: Металариец
Posts: 20,312
Releases: 13846
From: Г.Харьков
On Forums: 7 years 8 months
Thanks: 242306 time(s)
Unknown


(IMG:http://metalarea.org/images/audiocovers/2020_Jan/acov_tid332609_thumb.jpg)

*Artist: Raper
*Album: You Will Die
*Year: 2017
*Genre: Thrash Metal
*Country: Chile (IMG:http://metalarea.org/forum/style_images/flags/Chile.png)
*Format: mp3@CBR320kbps
*Size: 92MB

Tracklist:
1. Assassin 03:10
2. Burn 03:12
3. Depravator 03:40
4. Kill It with Fire 03:50
5. Mass Destruction 03:04
6. Missing Jesus 03:24
7. Morphine 02:59
8. Multi-Kill 03:06
9. The End Is Near 03:42
10. Trail to Pain 04:19
11. You Will Die 03:23
******************************
Total playing time: 37:49





Extended info
Chris Hernandez Bass, Vocals (2011-present)
See also: ex-Hellfire
Mauricio Vidal Drums (2011-present)
See also: ex-Hell Inside, ex-Hellfire
Alejandro Mejías Guitars (2011-present)
See also: ex-Santa Sangre
Alvaro Villagra Guitars (2013-present)
See also: ex-Under the Flesh, ex-Cerberus


Technical info
(IMG:http://metalarea.org/images/spectrogram/2020_Jan/b2a438095158c4653b4bba9c93de9b4e.png)
Input File: 03 - Depravator.mp3
Channels : 2
Sample Rate : 44100
Precision : 16-bit
Duration : 00:03:38.32 = 9627912 samples = 16374 CDDA sectors
File Size : 9.43M
Bit Rate : 346k
Sample Encoding: MPEG audio (layer I, II or III)
Comments :
Title=Depravator
Artist=RapeR
Album=You Will Die
Tracknumber=3
Year=2017
Genre=Thrash Metal



Register


Go to the top of the page
  Insert nick Quick quote
+Quote Post
 
Start new topic
Replies (1 - 2)
post Jan 14 2020, 05:09:30
Post #2

Четыре Литра
****
Group: Металариец
Posts: 306
Releases: 0
From: Ташкент
On Forums: 11 years 11 months
Thanks: 83 time(s)
Uzbekistan


Репер, ты должен сдохнуть! И черепушка, прошитая пулями. Символично.


Thanks:
(1) Eisbar,
Go to the top of the page
  Insert nick Quick quote
+Quote Post
post Jan 14 2020, 06:53:24
Post #3

hearer & reader
**************
Group: Металариец
Posts: 8,292
Releases: 113
From: Moscow
On Forums: 12 years 4 months
Thanks: 7886 time(s)
Russian Federation


ЦИТАТА(JPV @ Jan 14 2020, 07:09:30) *
Репер, ты должен сдохнуть! И черепушка, прошитая пулями. Символично.

Боюсь, что это от слова "Rape"...
Go to the top of the page
  Insert nick Quick quote
+Quote Post

Reply to this topicStart new topic
1 User(s) are reading this topic (1 Guests and 0 Anonymous Users)
0 Members:

 



- Lo-Fi Version Support form
Copyrights and abuse reports form
Time is now: 23rd January 2020 - 23:57:43