Welcome Guest ( Log In | Register )

> Releases Upload / Добавление релизов

Добавить релиз тут / Click here to add release
Рекомендованные обменники / Recommended file shares

> Stone Hand - Carcosa (2020), Groove/Thrash Metal
post Jan 14 2020, 00:42:44
Post #1

Правь статус, ####!111
**************
Group: Металариец
Posts: 20,311
Releases: 13846
From: Г.Харьков
On Forums: 7 years 8 months
Thanks: 242304 time(s)
Unknown


(IMG:http://metalarea.org/images/audiocovers/2020_Jan/acov_tid332611_thumb.jpg)

*Artist: Stone Hand
*Album: Carcosa
*Year: 2020
*Genre: Groove/Thrash Metal
*Country: United Kingdom (IMG:http://metalarea.org/forum/style_images/flags/United%20Kingdom.png)
*Format: mp3@CBR320kbps
*Size: 82MB

Tracklist:
1. Hanging from the Rafters 03:43
2. Left to Ember 03:08
3. Decay 03:10
4. Enslaved by Terror 03:47
5. Diluted Mind 02:24
6. Blamed 03:20
7. Malicious Intent 03:14
8. Error Effects 03:03
9. Carcosa 06:19
10. Watch Me Bleed 03:10
******************************
Total playing time: 35:18



Extended info



Technical info
(IMG:http://metalarea.org/images/spectrogram/2020_Jan/7fbf2378d64e421303de0d8b25e23089.png)
Input File: 04 - Enslaved by Terror.mp3
Channels : 2
Sample Rate : 44100
Precision : 16-bit
Duration : 00:03:47.15 = 10017315 samples = 17036.2 CDDA sectors
File Size : 9.22M
Bit Rate : 325k
Sample Encoding: MPEG audio (layer I, II or III)
Comments :
Title=Enslaved by Terror
Artist=Stone Hand
Album=Carcosa
Tracknumber=4
Year=2020-01-13
Genre=Metal
Discnumber=1



Register


Go to the top of the page
  Insert nick Quick quote
+Quote Post
 
Start new topic
Replies (1 - 2)
post Jan 14 2020, 16:51:30
Post #2

Тридцать лет на борту "Тяжёлого" крейсера
**************
Group: Металариец
Posts: 2,150
Releases: 0
From: Питер
On Forums: 12 years 7 months
Thanks: 564 time(s)
Russian Federation


Местами
Go to the top of the page
  Insert nick Quick quote
+Quote Post
post Jan 19 2020, 10:03:57
Post #3

Group: Подсевший
Posts: 14
Releases: 0
From: Voronezh
On Forums: 10 years 2 months
Thanks: 1 time(s)
Russian Federation


Некоторые треки хороши прям
Go to the top of the page
  Insert nick Quick quote
+Quote Post

Reply to this topicStart new topic
1 User(s) are reading this topic (1 Guests and 0 Anonymous Users)
0 Members:

 



- Lo-Fi Version Support form
Copyrights and abuse reports form
Time is now: 23rd January 2020 - 23:32:05