Welcome Guest ( Log In | Register )

> Necrolust - Advent Of New Evil [ep] (2020), Black Metal (D)
post Jan 14 2020, 01:14:05
Post #1

Правь статус, ####!111
**************
Group: Металариец
Posts: 22,665
Releases: 15760
From: Г.Харьков
On Forums: 8 years 3 months
Thanks: 290225 time(s)
Unknown


(IMG:http://metalarea.org/images/audiocovers/2020_Jan/acov_tid332612_thumb.jpg)

*Artist: Necrolust
*Album: Advent Of New Evil [ep]
*Year: 2020
*Genre: Black Metal
*Country: Italy (IMG:http://metalarea.org/forum/style_images/flags/Italy.png)
*Format: mp3@CBR320kbps
*Size: 43MB

Tracklist:
1. Black Magic Night 02:29
2. Nightmares & Succubi 03:37
3. Black Spirit of Samhain 04:36
4. Condemned 02:04
5. Treats of Darkness 03:14
6. Echoes of Deadly Scream 02:37
******************************
Total playing time: 18:37




Extended info
Radamantis Bass
Andras Drums
Hack Guitars, Vocals


Technical info
(IMG:http://metalarea.org/images/spectrogram/2020_Jan/a237b128855c64e03599dbdf759aebfb.png)
Input File: 03 - Black Spirit of Sanhianf Sanhi.mp3
Channels : 2
Sample Rate : 44100
Precision : 16-bit
Duration : 00:04:36.89 = 12210849 samples = 20766.8 CDDA sectors
File Size : 11.1M
Bit Rate : 322k
Sample Encoding: MPEG audio (layer I, II or III)
Comments :
Title=Black Spirit of Sanhianf Sanhi
Artist=Necrolust
Album=Advent of New Evil
Tracknumber=3
Year=2020-01-06
Genre=Metal
Discnumber=1



Register


Go to the top of the page
  Insert nick Quick quote
+Quote Post
 
Start new topic
Replies (1 - 1)
post Jan 27 2020, 18:50:07
Post #2

Full-of-Hate
**************
Group: Металариец
Posts: 3,739
Releases: 0
From: Moscow
On Forums: 11 years 1 month
Thanks: 3554 time(s)
Russian Federation


Нарочито пародийный yeбищный материал
Go to the top of the page
  Insert nick Quick quote
+Quote Post

Reply to this topicStart new topic
1 User(s) are reading this topic (1 Guests and 0 Anonymous Users)
0 Members:

 



- Lo-Fi Version Support form
Copyrights and abuse reports form
Time is now: 10th August 2020 - 12:43:26