Welcome Guest ( Log In | Register )

 
Reply to this topicStart new topic
> Triumvirate - Hymns Of The Night (2020), Black/Death Metal
post Jan 14 2020, 08:39:38
Post #1

Правь статус, ####!111
**************
Group: Металариец
Posts: 22,665
Releases: 15760
From: Г.Харьков
On Forums: 8 years 3 months
Thanks: 290218 time(s)
Unknown


(IMG:http://metalarea.org/images/audiocovers/2020_Jan/acov_tid332615_thumb.jpg)

*Artist: Triumvirate
*Album: Hymns Of The Night
*Year: 2020
*Genre: Black/Death Metal
*Country: United States (IMG:http://metalarea.org/forum/style_images/flags/United%20States.png)
*Format: mp3@CBR320kbps
*Size: 106MB

Tracklist:
1. As the Sun Sets 01:55
2. Unforgiven 03:47
3. Night of the Dying Dead 03:56
4. The Storm 03:50
5. Sands of Time 04:03
6. An Unknown Presence 04:43
7. Bring Me War 04:18
8. Religion 02:56
9. Entrapment 02:47
10. Darkness Descends 04:28
11. Blown Away by the Winds of Sorrow 04:19
12. The Dead Will Rise 05:09
******************************
Total playing time: 46:11




Extended info
CS Everything




Technical info
(IMG:http://metalarea.org/images/spectrogram/2020_Jan/6885e2817c6f2cf03c00d71b33988240.png)
Input File: 5 - Sands of Time.mp3
Channels : 2
Sample Rate : 44100
Precision : 16-bit
Duration : 00:04:03.89 = 10755637 samples = 18291.9 CDDA sectors
File Size : 9.83M
Bit Rate : 322k
Sample Encoding: MPEG audio (layer I, II or III)
Comments :
Title=Sands of Time
Artist=Triumvirate
Album=Hymns of the Night
Tracknumber=5
Year=2020
Genre=Rock/Metal
Discnumber=1



Register


Go to the top of the page
  Insert nick Quick quote
+Quote Post

Reply to this topicStart new topic
1 User(s) are reading this topic (1 Guests and 0 Anonymous Users)
0 Members:

 



- Lo-Fi Version Support form
Copyrights and abuse reports form
Time is now: 10th August 2020 - 12:13:10