Welcome Guest ( Log In | Register )

> Releases Upload / Добавление релизов

Добавить релиз тут / Click here to add release
Рекомендованные обменники / Recommended file shares

 
Reply to this topicStart new topic
> Drago - Vórtice (2020), Progressive Death/Groove Metal
post Jan 14 2020, 09:00:52
Post #1

Правь статус, ####!111
**************
Group: Металариец
Posts: 20,313
Releases: 13846
From: Г.Харьков
On Forums: 7 years 8 months
Thanks: 242318 time(s)
Unknown


(IMG:http://metalarea.org/images/audiocovers/2020_Jan/acov_tid332616_thumb.jpg)

*Artist: Drago
*Album: Vórtice
*Year: 2020
*Genre: Progressive Death/Groove Metal
*Country: Spain (IMG:http://metalarea.org/forum/style_images/flags/Spain.png)
*Format: mp3@CBR320kbps
*Size: 103MB

Tracklist:
01. Vortice
02. Prima Nocte
03. Samurai
04. Danna
05. Lobo
06. El Fantasma Del Espejo
07. Liberame
08. No Soy Un Error
09. Estrella Del Norte
10. Invisible
******************************
Total playing time: 42:57

(IMG:http://metalarea.org/images/youtube.png)


Extended info
Voz - Javier Cardoso
Guitarra - Juan Manuel Viñas
Guitarra - Iván Checa
Bajo - Carlos Sobrino
Batería - Rodrigo de Lucas



Technical info
(IMG:http://metalarea.org/images/spectrogram/2020_Jan/a65e3fac725d0873f6590b63867665c1.png)
Input File: 05. Lobo.mp3
Channels : 2
Sample Rate : 44100
Precision : 16-bit
Duration : 00:05:49.88 = 15429708 samples = 26241 CDDA sectors
File Size : 14.4M
Bit Rate : 330k
Sample Encoding: MPEG audio (layer I, II or III)
Comments :
Title=Lobo
Artist=Drago
Album=Vórtice
Tracknumber=5
Year=2020



Register


Go to the top of the page
  Insert nick Quick quote
+Quote Post

Reply to this topicStart new topic
1 User(s) are reading this topic (1 Guests and 0 Anonymous Users)
0 Members:

 



- Lo-Fi Version Support form
Copyrights and abuse reports form
Time is now: 24th January 2020 - 01:20:18