Welcome Guest ( Log In | Register )

 
Reply to this topicStart new topic
> Tortuga - Deities (2020), Psychedelic Stoner/Doom Metal
post Jan 14 2020, 09:15:10
Post #1

Правь статус, ####!111
**************
Group: Металариец
Posts: 22,665
Releases: 15760
From: Г.Харьков
On Forums: 8 years 3 months
Thanks: 290220 time(s)
Unknown


(IMG:http://metalarea.org/images/audiocovers/2020_Jan/acov_tid332617_thumb.jpg)

*Artist: Tortuga
*Album: Deities
*Year: 2020
*Genre: Psychedelic Stoner/Doom Metal
*Country: Poland (IMG:http://metalarea.org/forum/style_images/flags/Poland.png)
*Format: mp3@CBR320kbps
*Size: 122MB

Tracklist:
1. Shining Sphere 02:15
2. Esoteric Order 07:26
3. For Elizard 07:18
4. Defective Mind Transfer 06:07
5. Black Pharaoh II 06:10
6. Trip 08:56
7. Galeón de Manila 15:53
******************************
Total playing time: 54:05




Extended info
Heszu Bass
Marmur Drums
Pablo Guitars, Vocals
Kyoss Guitars, Vocals


Technical info
(IMG:http://metalarea.org/images/spectrogram/2020_Jan/430856355a7908a744f7a1bf7939466c.png)
Input File: 03 For Elizard.mp3
Channels : 2
Sample Rate : 44100
Precision : 16-bit
Duration : 00:07:18.39 = 19332911 samples = 32879.1 CDDA sectors
File Size : 17.5M
Bit Rate : 320k
Sample Encoding: MPEG audio (layer I, II or III)
Comments :
Title=For Elizard
Artist=Tortuga
Album=Deities
Tracknumber=3
Year=2020
Genre=Metal



Register


Go to the top of the page
  Insert nick Quick quote
+Quote Post

Reply to this topicStart new topic
1 User(s) are reading this topic (1 Guests and 0 Anonymous Users)
0 Members:

 



- Lo-Fi Version Support form
Copyrights and abuse reports form
Time is now: 10th August 2020 - 12:22:05