Welcome Guest ( Log In | Register )

> Releases Upload / Добавление релизов

Добавить релиз тут / Click here to add release
Рекомендованные обменники / Recommended file shares

> Leshy - Psychopomp (2020), Dark/Doom Metal
post Jan 14 2020, 09:36:54
Post #1

Правь статус, ####!111
**************
Group: Металариец
Posts: 20,311
Releases: 13846
From: Г.Харьков
On Forums: 7 years 8 months
Thanks: 242304 time(s)
Unknown


(IMG:http://metalarea.org/images/audiocovers/2020_Jan/acov_tid332618_thumb.jpg)

*Artist: Leshy
*Album: Psychopomp
*Year: 2020
*Genre: Dark/Doom Metal
*Country: Poland (IMG:http://metalarea.org/forum/style_images/flags/Poland.png)
*Format: mp3@CBR320kbps
*Size: 99MB

Tracklist:
1. Poziom 4 07:34
2. Przestroga 09:35
3. Powinność 01:46
4. Psychopomp 07:13
5. Przeniewierstwo 08:32
6. Powietrze 07:59
******************************
Total playing time: 42:39




Extended info
Cube Bass
See also: VSN
Śmigło Drums
See also: Parh
Tytman Guitars
Shnapps Guitars
See also: Concatenation, ex-The Nameless, VSN
Night Heron Vocals
See also: Black Mad Lice, Minetaur, ex-Black Pocket Lice, VSN




Technical info
(IMG:http://metalarea.org/images/spectrogram/2020_Jan/a07d53db08643573a9a2e9c49e394ecb.png)
Input File: 02 - Przestroga.mp3
Channels : 2
Sample Rate : 44100
Precision : 16-bit
Duration : 00:09:35.41 = 25375493 samples = 43155.6 CDDA sectors
File Size : 23.2M
Bit Rate : 323k
Sample Encoding: MPEG audio (layer I, II or III)
Comments :
Title=Przestroga
Artist=Leshy
Album=Psychopomp
Tracknumber=2
Year=2020-01-14
Genre=Metal
Discnumber=1



Register


Go to the top of the page
  Insert nick Quick quote
+Quote Post
 
Start new topic
Replies (1 - 3)
post Jan 14 2020, 16:39:06
Post #2

MISANTHROPHILIAC 666
******
Group: Металариец
Posts: 635
Releases: 1
From: Екатеринбург
On Forums: 11 years 7 months
Thanks: 370 time(s)
Russian Federation


нормально мотыляющее муззло = на грани стыков жанров 666
(IMG:style_emoticons/default/crazy.gif)


Thanks:
Go to the top of the page
  Insert nick Quick quote
+Quote Post
post Jan 14 2020, 17:18:21
Post #3

Group: Подсевший
Posts: 21
Releases: 0
On Forums: 1 week 2 days
Thanks: 6 time(s)
Kazakhstan


Вроде все на своих местах, но до конца осилил с трудом
Go to the top of the page
  Insert nick Quick quote
+Quote Post
post Jan 14 2020, 19:21:25
Post #4

кручу наждак
**************
Group: Металариец
Posts: 4,218
Releases: 99
From: Самара
On Forums: 9 years 8 months
Thanks: 3299 time(s)
Russian Federation


Хипсторовато звучит, но в принципе неплохо, пару раз прогнать можно.
Go to the top of the page
  Insert nick Quick quote
+Quote Post

Reply to this topicStart new topic
1 User(s) are reading this topic (1 Guests and 0 Anonymous Users)
0 Members:

 



- Lo-Fi Version Support form
Copyrights and abuse reports form
Time is now: 23rd January 2020 - 23:31:48