Welcome Guest ( Log In | Register )

> И неформату есть предел.

Рэп/хип-хоп/шансон/поп удаляются. Для них есть свои порталы.

 
Reply to this topicStart new topic
> Like Drone Razors Through Flesh Sphere - Prana [live] (2015), Drone/Doom Metal/Ambient (D)
post Jan 14 2020, 12:34:48
Post #1

Четыре Литра
****
Group: Металариец
Posts: 352
Releases: 61
On Forums: 6 years 2 months
Thanks: 1167 time(s)
Serbia


(IMG:https://metalarea.org/images/audiocovers/2020_Jan/acov_tid332619_thumb.jpg)

*Artist: Like Drone Razors Through Flesh Sphere
*Album: Prana [live]
*Year: 2015
*Genre: Drone/Doom Metal/Ambient
*Country: Spain (IMG:https://metalarea.org/forum/style_images/flags/Spain.png)
*Format: mp3@CBR320kbps
*Size: 87MB

Tracklist:
1. Prana 1 15:53
2. Prana 2 20:45
******************************
Total playing time: 36:38



Extended info
Notes
Limited to 30 copies.
Acoustic drone performances recorded live.


Technical info
(IMG:https://metalarea.org/images/spectrogram/2020_Jan/539876e15cca32de5fbdd454aa7544d2.png)
Input File: Like Drone Razors Through Flesh Sphere - Prana - 01 Op. 59.mp3
Channels : 2
Sample Rate : 44100
Precision : 16-bit
Duration : 00:15:53.13 = 42033033 samples = 71484.8 CDDA sectors
File Size : 38.3M
Bit Rate : 321k
Sample Encoding: MPEG audio (layer I, II or III)
Comments :
Title=Op. 59
Artist=Like Drone Razors Through Flesh Sphere
Album=Prana
Tracknumber=1
Year=2015



Register


Thanks:
Go to the top of the page
  Insert nick Quick quote
+Quote Post

Reply to this topicStart new topic
1 User(s) are reading this topic (1 Guests and 0 Anonymous Users)
0 Members:

 



- Lo-Fi Version Support form
Copyrights and abuse reports form
Time is now: 18th January 2020 - 01:59:01