Welcome Guest ( Log In | Register )

> Releases Upload / Добавление релизов

Добавить релиз тут / Click here to add release
Рекомендованные обменники / Recommended file shares

 
Reply to this topicStart new topic
> Morgenstern - The Golden Chain [ep] (2020), Black Metal
post Jan 14 2020, 12:51:15
Post #1

Маньяк
**********
Group: Металариец
Posts: 1,049
Releases: 881
From: Новороссийск
On Forums: 8 years 8 months
Thanks: 16093 time(s)
Russian Federation


(IMG:https://metalarea.org/images/audiocovers/2020_Jan/acov_tid332620_thumb.jpg)

*Artist: Morgenstern
*Album: The Golden Chain [ep]
*Year: 2020
*Genre: Black Metal
*Country: Russian Federation (IMG:https://metalarea.org/forum/style_images/flags/Russian%20Federation.png)
*Format: mp3@CBR320kbps
*Size: 87MB

Tracklist:
01. Crushing The Spiritual Prostitute 11:23
02. Thorned Star Solstice 10:28
03. The Golden Chain 16:21
******************************
Total playing time: 37:59



Technical info
(IMG:https://metalarea.org/images/spectrogram/2020_Jan/f8a5b5ff9ac96849de309f29c051f911.png)
Input File: 01. Crushing The Spiritual Prostitute.mp3
Channels : 2
Sample Rate : 44100
Precision : 16-bit
Duration : 00:11:10.32 = 29560936 samples = 50273.7 CDDA sectors
File Size : 26.8M
Bit Rate : 320k
Sample Encoding: MPEG audio (layer I, II or III)
Comments :
Title=Crushing The Spiritual Prostitute
Artist=Morgenstern
Album=The Golden Chain
Tracknumber=01
Year=2020
Genre=Black Metal



Register


Go to the top of the page
  Insert nick Quick quote
+Quote Post

Reply to this topicStart new topic
1 User(s) are reading this topic (1 Guests and 0 Anonymous Users)
0 Members:

 



- Lo-Fi Version Support form
Copyrights and abuse reports form
Time is now: 23rd January 2020 - 04:03:33