Welcome Guest ( Log In | Register )

> И неформату есть предел.

Рэп/хип-хоп/шансон/поп удаляются. Для них есть свои порталы.

 
Reply to this topicStart new topic
> Raven Heretic - Under The Sign (2020), Heavy Metal/Hard Rock
post Jan 14 2020, 13:26:53
Post #1

Маньяк
**********
Group: Металариец
Posts: 1,011
Releases: 183
On Forums: 11 years 4 months
Thanks: 3613 time(s)
Russian Federation


(IMG:http://metalarea.org/images/audiocovers/2020_Jan/acov_tid332622_thumb.jpg)

*Artist: Raven Heretic
*Album: Under The Sign
*Year: 2020
*Genre: Heavy Metal/Hard Rock
*Country: Sweden (IMG:http://metalarea.org/forum/style_images/flags/Sweden.png)
*Format: mp3@CBR320kbps
*Size: 59MB

Tracklist:
01. King’s Decree 01;03
02. Let The Madness Begin 02:49
03. Under The Sign 03:38
04. Badass Manifest 04:03
05. Rock N Roll 03:12
06. Boys Night Out 03:37
07. Sinful 04:01
08. Dusty Roads 03:00
******************************
Total playing time: 24:20

Extended info


LineUp:
Tobias Sundman - Vocals
Elias Kumpula - Guitars
Bjorn Edlund - Drums
Niklas Storvall - Bass


Technical info
(IMG:http://metalarea.org/images/spectrogram/2020_Jan/2a91f271140be69f49252f50db30343c.png)
Input File: 03-Under The Sign.mp3
Channels : 2
Sample Rate : 44100
Precision : 16-bit
Duration : 00:03:38.12 = 9618916 samples = 16358.7 CDDA sectors
File Size : 8.73M
Bit Rate : 320k
Sample Encoding: MPEG audio (layer I, II or III)
Comments :
Title=Under The Sign
Artist=Raven Heretic
Album=Under The Sign
Tracknumber=3
Year=2020
Genre=Heavy Metal / Hard Rock



Register


Go to the top of the page
  Insert nick Quick quote
+Quote Post

Reply to this topicStart new topic
1 User(s) are reading this topic (1 Guests and 0 Anonymous Users)
0 Members:

 



- Lo-Fi Version Support form
Copyrights and abuse reports form
Time is now: 31st March 2020 - 15:05:03