Welcome Guest ( Log In | Register )

 
Reply to this topicStart new topic
> Porky & Noma And The Big Fat Ass: Attack - Porkynoma [split] (2018), Goregrind | Porno Goregrind (D7)
post Jan 14 2020, 14:37:10
Post #1

Serial Uploader
Group Icon
Group: V.I.P
Posts: 37,287
Releases: 35468
From: Lithuania
On Forums: 12 years 2 months
Thanks: 422681 time(s)
Lithuania


(IMG:https://metalarea.org/images/audiocovers/2020_Jan/acov_tid332623_thumb.jpg)

*Artist: Porky & Noma And The Big Fat Ass: Attack
*Album: Porkynoma [split]
*Year: 2018
*Genre: Goregrind | Porno Goregrind
*Country: Chile (IMG:https://metalarea.org/forum/style_images/flags/Chile.png) | Chile (IMG:https://metalarea.org/forum/style_images/flags/Chile.png)
*Format: mp3@CBR320kbps
*Size: 29MB

Tracklist:
Porky:
01. Santa Claus Se Masturba Viendo MLP 02:23
02. Asfixiando Guaguas En La Sala De Maternidad 00:45
03. Terror Testicular 00:57
Noma And The Big Fat Ass: Attack:
04. Progeria 03:11
05. Gordo Asqueroso 02:54
06. Sadmetal 02:05
******************************
Total playing time: 12:15




(IMG:https://metalarea.org/images/youtube.png)

Technical info
(IMG:https://metalarea.org/images/spectrogram/2020_Jan/7573ba302018cb994c398010f8c2a209.png)
Input File: 02. Asfixiando Guaguas en la Sala de Maternidad.mp3
Channels : 2
Sample Rate : 44100
Precision : 16-bit
Duration : 00:00:45.09 = 1988425 samples = 3381.68 CDDA sectors
File Size : 1.96M
Bit Rate : 347k
Sample Encoding: MPEG audio (layer I, II or III)
Comments :
Title=Asfixiando Guaguas en la Sala de Maternidad
Artist=Porky
Album=PorkyNoma 2 way split with Noma and the Big And Fat Ass Attack
Tracknumber=2
Year=2018



Register


Go to the top of the page
  Insert nick Quick quote
+Quote Post

Reply to this topicStart new topic
1 User(s) are reading this topic (1 Guests and 0 Anonymous Users)
0 Members:

 



- Lo-Fi Version Support form
Copyrights and abuse reports form
Time is now: 9th August 2020 - 18:19:59