Welcome Guest ( Log In | Register )

> Releases Upload / Добавление релизов

Добавить релиз тут / Click here to add release
Рекомендованные обменники / Recommended file shares

> Mastectomy - Worst Kind Of Human (2020), Brutal Death Metal
post Jan 14 2020, 14:58:51
Post #1

Правь статус, ####!111
**************
Group: Металариец
Posts: 20,297
Releases: 13832
From: Г.Харьков
On Forums: 7 years 8 months
Thanks: 241860 time(s)
Unknown


(IMG:http://metalarea.org/images/audiocovers/2020_Jan/acov_tid332624_thumb.jpg)

*Artist: Mastectomy
*Album: Worst Kind Of Human
*Year: 2020
*Genre: Brutal Death Metal
*Country: Poland (IMG:http://metalarea.org/forum/style_images/flags/Poland.png)
*Format: mp3@CBR320kbps
*Size: 97MB

Tracklist:
01. Rece Ktore Kalecza
02. Brass Knuckle Carnage
03. Twarzopoz?eracz
04. Disfigured Revelation
05. Zasady Dynamiki Umierania
06. Hatred Is Sexy
07. Murder Solves Everything
08. Ekstremalny Klimat Jebania
09. Wo?da, Dziwki, Koks
10. Putrid Breath Odour
11. Czerwone Bestie Stalina
******************************
Total playing time: 42:15



Extended info
Adam Nowak All instruments, Vocals


Technical info
(IMG:http://metalarea.org/images/spectrogram/2020_Jan/94ec74ac70e28834b7ce9c774ab231ed.png)
Input File: 06. Hatred Is Sexy.mp3
Channels : 2
Sample Rate : 44100
Precision : 16-bit
Duration : 00:04:58.62 = 13169230 samples = 22396.6 CDDA sectors
File Size : 12.0M
Bit Rate : 322k
Sample Encoding: MPEG audio (layer I, II or III)
Comments :
Title=Hatred Is Sexy
Artist=Mastectomy
Album=Worst Kind of Human
Tracknumber=6
Year=2020
Genre=Metal
Discnumber=1



Register


Go to the top of the page
  Insert nick Quick quote
+Quote Post
 
Start new topic
Replies (1 - 1)
post Jan 19 2020, 10:01:45
Post #2

Group: Подсевший
Posts: 14
Releases: 0
From: Voronezh
On Forums: 10 years 2 months
Thanks: 1 time(s)
Russian Federation


Отличный релиз!!!
Go to the top of the page
  Insert nick Quick quote
+Quote Post

Reply to this topicStart new topic
2 User(s) are reading this topic (2 Guests and 0 Anonymous Users)
0 Members:

 



- Lo-Fi Version Support form
Copyrights and abuse reports form
Time is now: 22nd January 2020 - 00:22:45