Welcome Guest ( Log In | Register )

> Releases Upload / Добавление релизов

Добавить релиз тут / Click here to add release
Рекомендованные обменники / Recommended file shares

 
Reply to this topicStart new topic
> Dbmivfv & Xgrifox - Dbmivfv/Xgrifox [split] (2018), Experimental Grindcore | Grindcore/Powerviolence (D5)
post Jan 14 2020, 14:59:31
Post #1

Serial Uploader
Group Icon
Group: V.I.P
Posts: 36,809
Releases: 34996
From: Lithuania
On Forums: 11 years 7 months
Thanks: 410975 time(s)
Lithuania


(IMG:https://metalarea.org/images/audiocovers/2020_Jan/acov_tid332625_thumb.jpg)

*Artist: Dbmivfv & Xgrifox
*Album: Dbmivfv/Xgrifox [split]
*Year: 2018
*Genre: Experimental Grindcore | Grindcore/Powerviolence
*Country: Canada (IMG:https://metalarea.org/forum/style_images/flags/Canada.png) | United States (IMG:https://metalarea.org/forum/style_images/flags/United%20States.png)
*Format: mp3@CBR320kbps
*Size: 16MB

Tracklist:
DBMIVFV:
01. Projectile Cholangiocarcinoma 02:03
02. Baby Thrown Off Balcony 00:42
03. Primary Sclerosing Cholangitis 00:56
XGrifox:
04. 11 Trax (#1.Tonymontana Kills Alberto The Shadow #2.Tecpatl #3.You're Exisctence Dosent Matter #4.Sheeple #5.My First Dab #6.Tmnt No.1 Rule 7#.Cazar Al Cazero #8.Vamos A Fumar #9.Ahhhh #10.Tu Ignorancia Me Hace Reir #11.Edward Mordrake) 03:19
******************************
Total playing time: 7:00




(IMG:https://metalarea.org/images/youtube.png)

Technical info
(IMG:https://metalarea.org/images/spectrogram/2020_Jan/e28cfed74fb88ec7615cda1de4a0f2d9.png)
Input File: 02. Baby Thrown Off Balcony.mp3
Channels : 2
Sample Rate : 44100
Precision : 16-bit
Duration : 00:00:42.95 = 1893963 samples = 3221.03 CDDA sectors
File Size : 1.86M
Bit Rate : 346k
Sample Encoding: MPEG audio (layer I, II or III)
Comments :
Title=Baby Thrown Off Balcony
Artist=DBMIVFV
Album=split w/XGRIFOX
Tracknumber=2
Year=2018



Register


Thanks:
Go to the top of the page
  Insert nick Quick quote
+Quote Post

Reply to this topicStart new topic
2 User(s) are reading this topic (2 Guests and 0 Anonymous Users)
0 Members:

 



- Lo-Fi Version Support form
Copyrights and abuse reports form
Time is now: 21st January 2020 - 23:44:03