Welcome Guest ( Log In | Register )

 
Reply to this topicStart new topic
> Misogynie & Urine Tumor - Le Presque Split [split] (2019), Grindcore/Noise | Porno Goregrind (D9)
post Jan 14 2020, 15:32:49
Post #1

Serial Uploader
Group Icon
Group: V.I.P
Posts: 37,300
Releases: 35481
From: Lithuania
On Forums: 12 years 2 months
Thanks: 422918 time(s)
Lithuania


(IMG:https://metalarea.org/images/audiocovers/2020_Jan/acov_tid332626_thumb.jpg)

*Artist: Misogynie & Urine Tumor
*Album: Le Presque Split [split]
*Year: 2019
*Genre: Grindcore/Noise | Porno Goregrind
*Country: Belgium (IMG:https://metalarea.org/forum/style_images/flags/Belgium.png) | France (IMG:https://metalarea.org/forum/style_images/flags/France.png)
*Format: mp3@CBR320kbps
*Size: 17MB

Tracklist:
Misogynie:
01. Salut Fieu, À Tantôt! 00:44
02. Ta Gueule (Chanson Technique) 00:20
03. Arrête Avec Tes Préjugés, Sale Baguette De Merde Là Et Puis On Dit Chocolatine, Ignare 00:51
04. Yolande II: Le Retour Du Moisi Corsage (Bordel Ce Qu'ils Chantent Mal Ces Français) (Feat. Gauthier) 01:17
05. This Song Is Called.. 00:27
Urine Tumor:
06. Blues Pas Piqué Des Hannetons Pour Protester Contre Les Champs De Coton (Protest Song) 00:29
07. Fais Pas Le Malin Gadjo, T'as Déjà Effectué Une Chirurgie Plastique Sur Un Cadavre Rigide? Bha Non, Parce Que Tu Penses Pas À Nos Nécrophiles Locaux, Enfoiré D'égoïste 00:30
08. Bordel De Merde 00:40
09. Calmez Vos Pulsions Médiévales Les Mecs, C'est Bien Beau De Gueuler "Devs Vvlt" Et "Sus A Jérusalem" Mais Faudrait Déjà Arrêter De Bouffer Des Kebabs À Longueur De Temps, Hein, Et De S'habiller Chez H&M, Les Croisades C'est Sérieux Putain 00:50
******************************
Total playing time: 6:08




Technical info
(IMG:https://metalarea.org/images/spectrogram/2020_Jan/fff1ccbe735f0c48b98220d98684614c.png)
Input File: 02. Ta gueule (chanson technique).mp3
Channels : 2
Sample Rate : 44100
Precision : 16-bit
Duration : 00:00:20.35 = 897435 samples = 1526.25 CDDA sectors
File Size : 1.08M
Bit Rate : 423k
Sample Encoding: MPEG audio (layer I, II or III)
Comments :
Title=Misogynie - Ta gueule (chanson technique)
Artist=Urine Tumor
Album=Le Presque Split - Urine Tumor X Misogynie (ou pas)
Tracknumber=2
Year=2019



Register


Go to the top of the page
  Insert nick Quick quote
+Quote Post

Reply to this topicStart new topic
1 User(s) are reading this topic (1 Guests and 0 Anonymous Users)
0 Members:

 



- Lo-Fi Version Support form
Copyrights and abuse reports form
Time is now: 15th August 2020 - 05:25:41