Welcome Guest ( Log In | Register )

> Releases Upload / Добавление релизов

Добавить релиз тут / Click here to add release
Рекомендованные обменники / Recommended file shares

 
Reply to this topicStart new topic
> Hematoespermia & Nosotros Hacemos Grindcore & Úlcera Vaginal - Nos Agarraron Pegoteados [split] (2019), Goregrind | Grindcore | Goregrind
post Jan 14 2020, 16:21:33
Post #1

Serial Uploader
Group Icon
Group: V.I.P
Posts: 36,814
Releases: 35001
From: Lithuania
On Forums: 11 years 7 months
Thanks: 411113 time(s)
Lithuania


(IMG:https://metalarea.org/images/audiocovers/2020_Jan/acov_tid332627_thumb.jpg)

*Artist: Hematoespermia & Nosotros Hacemos Grindcore & Úlcera Vaginal
*Album: Nos Agarraron Pegoteados [split]
*Year: 2019
*Genre: Goregrind | Grindcore | Goregrind
*Country: Chile (IMG:https://metalarea.org/forum/style_images/flags/Chile.png) | Argentina (IMG:https://metalarea.org/forum/style_images/flags/Argentina.png) | Chile (IMG:https://metalarea.org/forum/style_images/flags/Chile.png)
*Format: mp3@CBR320kbps
*Size: 124MB

Tracklist:
Hematoespermia:
01. Neoplasia Intraepitelial Maligna 00:46
02. Me Pican Las Ladillas 00:40
03. Carúncula Uretral Supurativa 00:45
04. Uretritis De Nongonococcal 00:48
05. Mi Semen Viene Cargado De Tetrahidrocannabinol 00:54
06. Doble Meato Urinario 00:45
07. Lesiones Cervicauterinas Precancerosas 01:24
08. Arrancamiento Impulsivo De La Sonda Urinaria 00:57
09. Extravasación Leucocitaria En La Glándula Seminal Infectada 00:57
10. Treponema Pallidum 00:57
11. Wadzilla 01:18
12. Secreción Sanguinolenta Uretral Post Coital 00:38
13. Weed Mutagenic Spermia 01:48
14. Patá En Loh Cocos 01:06
Nosotros Hacemos Grindcore:
15. El Cambio, Tu Cambio 01:48
16. Libérate Del Sistema 01:25
17. Medios De Comunicación 00:48
18. Autoextinción 00:58
19. Perseverancia 00:50
20. Moralistas 00:25
21. No Dejes De Moverte 01:05
22. Soportar 00:41
23. Dust Of Ignorance 01:01
24. Human Torture 00:58
25. Devastation World 00:58
26. Consciencia (Invitado Big David) 02:10
27. Desinformación 01:16
28. Mundo Incierto 01:10
Úlcera Vaginal:
29. Aborto Espontaneo Por Brutal Frenada De Camión 01:16
30. Ano Putrefacto 01:11
31. La Enana Que Solo Tenía El Brazo Derecho (Pero Era Zurda) No Podría Limpiarse El Culo Y Tenía Un Bolo Fecal Marca Glande De 1kg 01:43
32. Defecación Anal Vaginal 01:59
33. Ulcera Vaginal 00:57
34. Vendigrind 02:45
35. Pise Mierda De Camino A Casa Y Viole A Un Guachín 01:43
36. Machaconcha 00:46
37. Vomitgrind 00:53
38. Orgía De Lesbianas Acrotomocoprofílicas 02:23
39. Miauricio Rati La Puta Que Te Re Mil Pario Me Cago En La Carl Agusanada De Tu Vieja 01:09
40. Los 3 Orgasmos Del Enano Albino 01:40
41. Obesidad Vaginal 02:14
******************************
Total playing time: 49:55





(IMG:https://metalarea.org/images/youtube.png)

Technical info
(IMG:https://metalarea.org/images/spectrogram/2020_Jan/c3807597e5e19cfe73ced9c61fad95d7.png)
Input File: 30. Ano Putrefacto.mp3
Channels : 2
Sample Rate : 44100
Precision : 16-bit
Duration : 00:01:11.90 = 3170614 samples = 5392.2 CDDA sectors
File Size : 3.11M
Bit Rate : 346k
Sample Encoding: MPEG audio (layer I, II or III)
Comments :
Title=Ulcera Vaginal - Ano Putrefacto
Artist=Nosotros Hacemos Grindcore, Hematoespermia, Ulcera Vaginal
Album=Nos Agarraron Pegoteados - 3 Way Live Split
Tracknumber=30
Year=2019



Register


Go to the top of the page
  Insert nick Quick quote
+Quote Post

Reply to this topicStart new topic
2 User(s) are reading this topic (2 Guests and 0 Anonymous Users)
0 Members:

 



- Lo-Fi Version Support form
Copyrights and abuse reports form
Time is now: 23rd January 2020 - 02:36:09